Статистика раздачи
Размер:  1,46 GB   |    Зарегистрирован:  7 месяцев 15 дней   |    Скачан:  0 раз

Полного источника не было: Никогда

 
     
 
 

Гость ®

Пол:
Не указан

Счастливого нового дня смерти / Happy Death Day 2U
«Отпразднуем ещё разок?»
- Год выхода: 2019
Страна: США
Производство: Blumhouse Productions
Жанр: ужасы, триллер, детектив
Продолжительность: 01:39:56
Перевод: Профессиональный (полное дублирование)
Субтитры: нет-Режиссер:
Кристофер Лэндон / Christopher Landon-В ролях:
Джессика Рот, Израэль Бруссар, Фи Ву, Сурадж Шарма, Сара Яркин, Рэйчел Мэттьюз, Руби Модин, Стив Зиссис, Чарльз Эйткин, Лаура Клифтон-О фильме:
На прошлый день рождения судьба преподнесла Три сомнительный подарок — праздник повторялся снова и снова, а в финале её неизменно убивал маньяк в маске. То ли дело в этом году: какое счастье проснуться с утра пораньше и оказаться мало того, что в том же самом дне, так ещё и в параллельной реальности — и всё это из-за маленького научного проекта Райана!
Смертельная тоска? Нет, бесконечное веселье!-Релиз групп | | IMDB | КиноПоиск | Сэмпл |-Качество: WEB-DLRip
Формат: AVI
Видео: 720x304 (2.37:1), 23.976 fps, XviD build 67 ~1700 kbps avg, 0.32 bit/pixel
Аудио: 48 kHz, AC3 Dolby Digital, 3/2 (L,C,R,l,r) + LFE ch, ~384 kbps avg - iTunes Russia-

Скриншоты

-

MediaInfo

Код:Полное имя : G:\S4astlivogo_novogo_dnya_smerti_2019_WEB-DLRip_iT_by_Dalemake.avi
Формат : AVI
Формат/Информация : Audio Video Interleave
Размер файла : 1,46 Гбайт
Продолжительность : 1 ч. 39 м.
Общий поток : 2092 Кбит/сек
Программа кодирования : VirtualDubMod 1.5.10.3 | www.virtualdub-fr.org || (build 2550/release)
Библиотека кодирования : VirtualDubMod build 2550/release
Видео
Идентификатор : 0
Формат : MPEG-4 Visual
Профиль формата : Advanced Simple@L5
Параметр BVOP формата : 1
Параметр QPel формата : Нет
Параметр GMC формата : Без точки перехода
Параметр матрицы формата : Выборочная
Идентификатор кодека : XVID
Идентификатор кодека/Подсказка : XviD
Продолжительность : 1 ч. 39 м.
Битрейт : 1699 Кбит/сек
Ширина : 720 пикселей
Высота : 304 пикселя
Соотношение сторон : 2,35:1
Частота кадров : 23,976 кадра/сек
Цветовое пространство : YUV
Субдискретизация насыщенности : 4:2:0
Битовая глубина : 8 бит
Тип развёртки : Прогрессивная
Метод сжатия : С потерями
Бит/(Пиксели*Кадры) : 0.324
Размер потока : 1,19 Гбайт (81%)
Библиотека кодирования : XviD 67
Аудио
Идентификатор : 1
Формат : AC-3
Формат/Информация : Audio Coding 3
Расширение режима : CM (complete main)
Параметр Endianness формата : Big
Идентификатор кодека : 2000
Продолжительность : 1 ч. 39 м.
Вид битрейта : Постоянный
Битрейт : 384 Кбит/сек
Каналы : 6 каналов
Расположение каналов : Front: L C R, Side: L R, LFE
Частота : 48,0 КГц
Метод сжатия : С потерями
Задержка видео : 22 мс.
Размер потока : 275 Мбайт (18%)
Выравнивание : Разделение по промежуткам
Продолжительность промежутка : 42 мс. (1,00 видеокадр)
Время предзагрузки промежутка : 500 мс.
-
[cybertorrent.net].t2289.torrent 
Торрент: Зарегистрирован [ 2019-04-25 16:16 ] · F52003FB7F3A0D925728D31DDE87B546D8218D43

Скачать .torrent

Скачать

15 KB

Статус: проверено
Скачан: 0 раз
Размер: 1,46 GB
terms.php
Показать сообщения:    

Текущее время: 11-Дек 07:05

Часовой пояс: UTC ± 0



Вы не можете начинать темы
Вы не можете отвечать на сообщения
Вы не можете редактировать свои сообщения
Вы не можете удалять свои сообщения
Вы не можете голосовать в опросах
Вы не можете прикреплять файлы к сообщениям
Вы можете скачивать файлы