Статистика раздачи
Скачал: [ 3 ]
 
     
 
 

K15 ®

Пол:
Мужской
Стаж:
1 год 8 месяцев
Сообщений:
508

Информация о фильме
Название: Будь моим Кириллом
Год выхода: 2021
Жанр: Комедия
Режиссер: Алла Елисеева
В ролях: Виталийс Семёновс, Анастасия Евграфова, Анна Антонова, Иван Мулин, Сергей Степин, Ирина Розанова
О фильме: Неуверенная в себе девушка Саша врет семье, что встречается с красавчиком Кириллом, хотя он — всего лишь ее тренер по бегу, с которым она боится даже заговорить. Муж сестры Паша знает правду, но у него и своих проблем хватает — у них с женой уже год не было секса. Записавшись вместе на беготерапию, Саша и Паша решают, что смогут убежать от проблем вместе.

Страна: Россия
Студия: Good Story Media, ТНТ
Продолжительность: 01:35:08
Перевод: Не требуется | iTunes
Файл
Качество: WEB-DLRip-AVC
Формат: MKV
Кодек: MPEG-4 AVC
Видео: 1024x428 (2.40:1), 24 fps, MPEG-4 AVC ~ 1809 Kbps avg, 0.172 bit/pixel
Аудио: AC3, 48 kHz, 6 ch, ~384.00 kbps avg | русский | iTunes
Субтитры: Отсутствуют

Инфо-файл

x264 [info]: frame I:1338 Avg QP:13.32 size: 78311
x264 [info]: frame P:28225 Avg QP:16.08 size: 21192
x264 [info]: frame B:107440 Avg QP:16.62 size: 5458
x264 [info]: consecutive B-frames: 2.2% 2.5% 8.2% 8.9% 6.8% 69.0% 1.3% 0.4% 0.5% 0.2%
*********************************************
Общее
Уникальный идентификатор : 220742552625415621369505842583252204170 (0xA611781E287A3DB643F9DAD7F7477A8A)
Полное имя : Bud.Moim.Kirillom.2021.1.46Gb.x264.MegaPeer.mkv
Формат : Matroska
Версия формата : Version 4
Размер файла : 1,46 Гбайт
Продолжительность : 1 ч. 35 м.
Общий поток : 2 193 Кбит/сек
Название фильма : Будь моим Кириллом (2021) от MegaPeer
Дата кодирования : UTC 2021-05-13 12:20:24
Программа кодирования : mkvmerge v47.0.0 ('Black Flag') 64-bit
Библиотека кодирования : libebml v1.3.10 + libmatroska v1.5.2
Обложка : Yes
Attachments : cover.jpg
Видео
Идентификатор : 1
Формат : AVC
Формат/Информация : Advanced Video Codec
Профиль формата : High@L4.1
Настройки формата : CABAC / 11 Ref Frames
Параметр CABAC формата : Да
Параметр RefFrames формата : 11 кадров
Идентификатор кодека : V_MPEG4/ISO/AVC
Продолжительность : 1 ч. 35 м.
Битрейт : 1 809 Кбит/сек
Ширина : 1 024 пикселя
Высота : 428 пикселей
Соотношение сторон : 2,40:1
Режим частоты кадров : Постоянный
Частота кадров : 24,000 кадра/сек
Цветовое пространство : YUV
Субдискретизация насыщенности : 4:2:0
Битовая глубина : 8 бит
Тип развёртки : Прогрессивная
Бит/(Пиксели*Кадры) : 0.172
Размер потока : 1,20 Гбайт (82%)
Заголовок : stillet@MegaPeer
Библиотека кодирования : x264 core 161 r3018 db0d417
Настройки программы : cabac=1 / ref=11 / deblock=1:-3:-3 / analyse=0x3:0x113 / me=umh / subme=11 / psy=1 / psy_rd=1.00:0.00 / mixed_ref=1 / me_range=48 / chroma_me=1 / trellis=2 / 8x8dct=1 / cqm=0 / deadzone=21,11 / fast_pskip=0 / chroma_qp_offset=-2 / threads=13 / lookahead_threads=2 / sliced_threads=0 / nr=0 / decimate=0 / interlaced=0 / bluray_compat=0 / constrained_intra=0 / bframes=9 / b_pyramid=2 / b_adapt=2 / b_bias=0 / direct=3 / weightb=1 / open_gop=0 / weightp=2 / keyint=240 / keyint_min=24 / scenecut=40 / intra_refresh=0 / rc_lookahead=40 / rc=2pass / mbtree=0 / bitrate=1809 / ratetol=1.0 / qcomp=0.60 / qpmin=0 / qpmax=69 / qpstep=4 / cplxblur=20.0 / qblur=0.5 / vbv_maxrate=50000 / vbv_bufsize=62500 / nal_hrd=none / filler=0 / ip_ratio=1.40 / pb_ratio=1.30 / aq=1:1.10
Язык : Russian
Default : Да
Forced : Нет
Аудио
Идентификатор : 2
Формат : AC-3
Формат/Информация : Audio Coding 3
Коммерческое название : Dolby Digital
Идентификатор кодека : A_AC3
Продолжительность : 1 ч. 35 м.
Вид битрейта : Постоянный
Битрейт : 384 Кбит/сек
Каналы : 6 каналов
Channel layout : L R C LFE Ls Rs
Частота : 48,0 КГц
Частота кадров : 31,250 кадров/сек (1536 SPF)
Метод сжатия : С потерями
Размер потока : 261 Мбайт (18%)
Заголовок : iTunes
Язык : Russian
Service kind : Complete Main
Default : Да
Forced : Нет
Меню
00:00:00.000 : Глава 1
00:08:04.000 : Глава 2
00:17:22.250 : Глава 3
00:25:28.000 : Глава 4
00:33:44.416 : Глава 5
00:42:03.457 : Глава 6
00:50:38.415 : Глава 7
00:59:35.623 : Глава 8
01:09:03.248 : Глава 9
01:18:15.664 : Глава 10
01:27:01.455 : Глава 11

Скриншоты

Релиз:
Профиль [ЛС]
Показать сообщения:    

Текущее время: 26-Сен 01:06

Часовой пояс: UTC ± 0



Вы не можете начинать темы
Вы не можете отвечать на сообщения
Вы не можете редактировать свои сообщения
Вы не можете удалять свои сообщения
Вы не можете голосовать в опросах
Вы не можете прикреплять файлы к сообщениям
Вы не можете скачивать файлы