Статистика раздачи
Размер:  1,47 GB   |    Зарегистрирован:  7 месяцев 20 дней   |    Скачан:  0 раз

Полного источника не было: Никогда

 
     
 
 

serzh ®

Пол:
Не указан
Стаж:
9 месяцев 2 дня
Сообщений:
384

Свой парень / Простой парень / Домосед / Домашний парень / Местный / Homeboy
«An Emotional Knock-Out»
Страна: США
Жанр: драма, мелодрама, спорт
Год выпуска: 1988
Продолжительность: 01:50:38
Перевод: Авторский (одноголосый закадровый) Андрей Гаврилов
Перевод 2: Одноголосый закадровый [ПРОШУ ОПОЗНАТЬ]
Субтитры: нет
Режиссер: Майкл Серезин / Michael Seresin
В ролях: Микки Рурк, Кристофер Уокен, Дебра Фойер, Томас Куинн, Кевин Конуэй, Энтони Алда,
Джон Полито, Билл Слэйтон, Дэвид Альберт Тейлор, Джозеф Раньо
Описание: Боксеру Джонни Уокеру слегка за тридцать. По спортивным меркам он — старик, к тому
же Джонни чрезмерно закладывает за воротник. Он одинок, беден и неприкаян. Он выходит на
каждый свой бой, как на последний и решительный. Если есть шанс, даже призрачный, подняться
и преуспеть, значит, надо этот шанс использовать.
Доп. информация: Дорожка с А. Гавриловым синхронизирована и наложена ale_x2008 при помощи Adobe Audition, Sony Vegas и VirtualDubMod.
За предоставленную ссылку на дорожку с ВК благодарим - d_rocker
Дорожка с VO синхронизирована и наложена ale_x2008 при помощи Sony Vegas и VirtualDubMod.
За оцифрованную с VHS дорожку благодарим - d_rocker
Релиз
Сэмпл: https://yadi.sk/i/ae-TG-a-88_fsQ
Качество видео: DVDRip
Формат видео: AVI
Видео: XviD build 73, 704x528 (1.33:1), 25 fps, 1501 kbps avg, 0.16 bit/pixel
Аудио: AC3 Dolby Digital, 48000Hz 2/0 (L,R) ch (mono), 192 kbps avg (AVO)
Аудио 2: AC3 Dolby Digital, 48000Hz 2/0 (L,R) ch (mono), 192 kbps avg (VO)

MediaInfo

Свой парень (Homeboy) [by ale_x2008].avi
Format : AVI
Format/Info : Audio Video Interleave
File size : 1.47 GiB
Duration : 1 h 50 min
Overall bit rate : 1 901 kb/s
Movie name : Свой парень (Homeboy) Eng
Director : DVDRip by ale_x2008
Genre : Drama
Writing application : VirtualDubMod 1.5.10.3 (build 2550/release)
Original source form/Name : Movie
Copyright : Edich2
Comment : RuTracker.org
Video
ID : 0
Format : MPEG-4 Visual
Format profile : Advanced Simple@L5
Format settings : BVOP1
Format settings, BVOP : 1
Format settings, QPel : No
Format settings, GMC : No warppoints
Format settings, Matrix : Default (MPEG)
Codec ID : XVID
Codec ID/Hint : XviD
Duration : 1 h 50 min
Bit rate : 1 502 kb/s
Width : 704 pixels
Height : 528 pixels
Display aspect ratio : 4:3
Frame rate : 25.000 FPS
Color space : YUV
Chroma subsampling : 4:2:0
Bit depth : 8 bits
Scan type : Progressive
Compression mode : Lossy
Bits/(Pixel*Frame) : 0.162
Stream size : 1.16 GiB (79%)
Writing library : XviD 73
Audio #1
ID : 1
Format : AC-3
Format/Info : Audio Coding 3
Codec ID : 2000
Duration : 1 h 50 min
Bit rate mode : Constant
Bit rate : 192 kb/s
Channel(s) : 2 channels
Channel positions : Front: L R
Sampling rate : 48.0 kHz
Frame rate : 31.250 FPS (1536 SPF)
Bit depth : 16 bits
Compression mode : Lossy
Stream size : 152 MiB (10%)
Alignment : Split accross interleaves
Interleave, duration : 40 ms (1.00 video frame)
Interleave, preload duratio : 500 ms
Service kind : Complete Main
Audio #2
ID : 2
Format : AC-3
Format/Info : Audio Coding 3
Codec ID : 2000
Duration : 1 h 50 min
Bit rate mode : Constant
Bit rate : 192 kb/s
Channel(s) : 2 channels
Channel positions : Front: L R
Sampling rate : 48.0 kHz
Frame rate : 31.250 FPS (1536 SPF)
Bit depth : 16 bits
Compression mode : Lossy
Stream size : 152 MiB (10%)
Alignment : Split accross interleaves
Interleave, duration : 40 ms (1.00 video frame)
Interleave, preload duratio : 500 ms
Service kind : Complete Main
[cybertorrent.net].t2275.torrent 
Торрент: Зарегистрирован [ 2019-04-24 16:06 ] · E7682087B271C033D0F212F4DBC56BDA4AC581AA

Скачать .torrent

Скачать

15 KB

Статус: проверено
Скачан: 0 раз
Размер: 1,47 GB
terms.php
Профиль [ЛС]
Показать сообщения:    

Текущее время: 14-Дек 22:25

Часовой пояс: UTC ± 0



Вы не можете начинать темы
Вы не можете отвечать на сообщения
Вы не можете редактировать свои сообщения
Вы не можете удалять свои сообщения
Вы не можете голосовать в опросах
Вы не можете прикреплять файлы к сообщениям
Вы можете скачивать файлы