Статистика раздачи
Размер:  2,82 GB   |    Зарегистрирован:  6 месяцев 18 дней   |    Скачан:  0 раз
Сидов:  5  [  0 KB/s  ]   Личеров:  1  [  0 KB/s  ]  
 
     
 
 

karlll ®

Пол:
Не указан
Стаж:
8 месяцев 1 день
Сообщений:
171

Когда дует ветер
When the Wind Blows«...Это не сказка»
- Страна: Великобритания
Жанр: Мультфильм, драма, комедия, военный
Продолжительность: 01:24:16
Год выпуска: 1986
-Перевод: Профессиональный (двухголосый, закадровый) | студия NLS
Перевод 2: Авторский (одноголосый, закадровый) | Антон Алексеев
Субтитры: русские + английские (полные, внешние, srt)
Режиссёр: Джимми Т. Мураками / Jimmy T. Murakami
-В ролях:
Пегги Эшкрофт, Джон Миллз, Робин Хьюстон, Джеймс Расселл, Дэвид Дандас, Мэтт Ирвинг
-ОписаниеС помощью выпущенных правительством брошюр, пожилая британская пара строит убежище и готовится к нависшему ядерному нападению.-
Sample
IMDb: 7.80 (8748)
релиз: -Качество: BDRip-AVC - Исходник (Спасибо -Azureus-)
Формат: MKV
Видео: AVC 4209 kb/s 800 x 600 (1.333) 23.976 fps
Аудио: 48 kHz, AC3 Dolby Digital, 2/0 (L,R) ch, ~192 kbps | DVO
Аудио 2: 48 kHz, AC3 Dolby Digital, 2/0 (L,R) ch, ~192 kbps | AVO
Аудио 3: 48 kHz, AC3 Dolby Digital, 2/0 (L,R) ch, ~192 kbps | Eng
-Цитата:
За чистый голос Антона Алексеева спасибо multmir
-

MediaInfo | Log

Log

x264 [info]: profile Progressive High, level 4.1, 4:2:0, 8-bit
x264 [info]: frame I:684 Avg QP:20.36 size: 70154
x264 [info]: frame P:24022 Avg QP:21.70 size: 36830
x264 [info]: frame B:96529 Avg QP:23.55 size: 17897
x264 [info]: consecutive B-frames: 0.9% 1.4% 8.1% 23.2% 17.8% 22.4% 6.9% 4.3% 4.8% 3.1% 3.4% 3.7%
x264 [info]: mb I I16..4: 2.0% 88.7% 9.2%
x264 [info]: mb P I16..4: 0.1% 18.7% 0.8% P16..4: 26.2% 33.5% 17.6% 1.6% 0.1% skip: 1.5%
x264 [info]: mb B I16..4: 0.0% 2.6% 0.1% B16..8: 39.1% 21.5% 7.1% direct:10.9% skip:18.8% L0:52.1% L1:40.7% BI: 7.2%
x264 [info]: 8x8 transform intra:95.3% inter:59.3%
x264 [info]: direct mvs spatial:100.0% temporal:0.0%
x264 [info]: coded y,uvDC,uvAC intra: 98.0% 86.1% 60.4% inter: 52.2% 38.8% 5.0%
x264 [info]: i16 v,h,dc,p: 50% 18% 13% 19%
x264 [info]: i8 v,h,dc,ddl,ddr,vr,hd,vl,hu: 8% 5% 14% 11% 14% 12% 12% 11% 12%
x264 [info]: i4 v,h,dc,ddl,ddr,vr,hd,vl,hu: 12% 5% 10% 9% 15% 14% 13% 11% 10%
x264 [info]: i8c dc,h,v,p: 43% 23% 18% 16%
x264 [info]: Weighted P-Frames: Y:33.9% UV:18.6%
x264 [info]: ref P L0: 32.5% 9.5% 15.0% 9.1% 7.6% 6.4% 5.9% 3.6% 3.4% 3.0% 3.0% 1.0% 0.0%
x264 [info]: ref B L0: 52.9% 14.5% 9.6% 5.8% 4.7% 4.2% 3.6% 2.4% 1.6% 0.6%
x264 [info]: ref B L1: 91.3% 8.7%
x264 [info]: kb/s:4208.86
x264 [total]: encoded 121235 frames, 13.37 fps, 4208.86 kb/s
Format : Matroska
Format version : Version 4 / Version 2
File size : 2.82 GiB
Duration : 1 h 24 min
Overall bit rate : 4 788 kb/s
Encoded date : UTC 2019-04-19 11:26:57
Writing application : mkvmerge v8.2.0 ('World of Adventure') 64bit
Writing library : libebml v1.3.1 + libmatroska v1.4.2
Video
ID : 1
Format : AVC
Format/Info : Advanced Video Codec
Format profile : High@L4.1
Format settings : CABAC / 11 Ref Frames
Format settings, CABAC : Yes
Format settings, RefFrames : 11 frames
Codec ID : V_MPEG4/ISO/AVC
Duration : 1 h 24 min
Bit rate : 4 209 kb/s
Width : 800 pixels
Height : 600 pixels
Display aspect ratio : 4:3
Frame rate mode : Constant
Frame rate : 23.976 (24000/1001) FPS
Color space : YUV
Chroma subsampling : 4:2:0
Bit depth : 8 bits
Scan type : Progressive
Bits/(Pixel*Frame) : 0.366
Stream size : 2.48 GiB (88%)
Title : When the Wind Blows (1986) [rutracker.org]
Writing library : x264 core 157 r2969 d4099dd
Encoding settings : cabac=1 / ref=11 / deblock=1:-3:-2 / analyse=0x3:0x133 / me=umh / subme=11 / psy=1 / psy_rd=1.00:0.05 / mixed_ref=1 / me_range=48 / chroma_me=1 / trellis=2 / 8x8dct=1 / cqm=0 / deadzone=21,11 / fast_pskip=0 / chroma_qp_offset=-3 / threads=12 / lookahead_threads=3 / sliced_threads=0 / nr=0 / decimate=1 / interlaced=0 / bluray_compat=0 / constrained_intra=0 / bframes=11 / b_pyramid=2 / b_adapt=2 / b_bias=0 / direct=3 / weightb=1 / open_gop=0 / weightp=2 / keyint=250 / keyint_min=23 / scenecut=40 / intra_refresh=0 / rc_lookahead=60 / rc=crf / mbtree=0 / crf=20.3 / qcomp=0.60 / qpmin=0 / qpmax=69 / qpstep=4 / vbv_maxrate=50000 / vbv_bufsize=62500 / crf_max=0.0 / nal_hrd=none / filler=0 / ip_ratio=1.40 / pb_ratio=1.30 / aq=3:0.90
Language : English
Default : Yes
Forced : No
Audio #1
ID : 2
Format : AC-3
Format/Info : Audio Coding 3
Codec ID : A_AC3
Duration : 1 h 24 min
Bit rate mode : Constant
Bit rate : 192 kb/s
Channel(s) : 2 channels
Channel positions : Front: L R
Sampling rate : 48.0 kHz
Frame rate : 31.250 FPS (1536 SPF)
Bit depth : 16 bits
Compression mode : Lossy
Stream size : 116 MiB (4%)
Title : DVO [студия NLS]
Language : Russian
Service kind : Complete Main
Default : Yes
Forced : No
Audio #2
ID : 3
Format : AC-3
Format/Info : Audio Coding 3
Codec ID : A_AC3
Duration : 1 h 24 min
Bit rate mode : Constant
Bit rate : 192 kb/s
Channel(s) : 2 channels
Channel positions : Front: L R
Sampling rate : 48.0 kHz
Frame rate : 31.250 FPS (1536 SPF)
Bit depth : 16 bits
Compression mode : Lossy
Stream size : 116 MiB (4%)
Title : AVO [А. Алексеев]
Language : Russian
Service kind : Complete Main
Default : No
Forced : No
Audio #3
ID : 4
Format : AC-3
Format/Info : Audio Coding 3
Codec ID : A_AC3
Duration : 1 h 24 min
Bit rate mode : Constant
Bit rate : 192 kb/s
Channel(s) : 2 channels
Channel positions : Front: L R
Sampling rate : 48.0 kHz
Frame rate : 31.250 FPS (1536 SPF)
Bit depth : 16 bits
Compression mode : Lossy
Stream size : 116 MiB (4%)
Title : Original
Language : English
Service kind : Complete Main
Default : No
Forced : No
Text #1
ID : 5
Format : UTF-8
Codec ID : S_TEXT/UTF8
Codec ID/Info : UTF-8 Plain Text
Duration : 1 h 23 min
Bit rate : 134 b/s
Count of elements : 1221
Stream size : 82.3 KiB (0%)
Title : Full
Language : Russian
Default : No
Forced : No
Text #2
ID : 6
Format : UTF-8
Codec ID : S_TEXT/UTF8
Codec ID/Info : UTF-8 Plain Text
Duration : 1 h 23 min
Bit rate : 79 b/s
Count of elements : 1226
Stream size : 48.5 KiB (0%)
Title : Full
Language : English
Default : No
Forced : No
Menu
00:00:00.000 : en:00:00:00.000
00:07:53.598 : en:00:07:53.598
00:14:41.172 : en:00:14:41.172
00:21:03.304 : en:00:21:03.304
00:28:22.826 : en:00:28:22.826
00:33:50.946 : en:00:33:50.946
00:43:18.095 : en:00:43:18.095
00:49:30.634 : en:00:49:30.634
00:56:31.138 : en:00:56:31.138
01:04:17.437 : en:01:04:17.437
01:10:57.170 : en:01:10:57.170
01:19:52.705 : en:01:19:52.705
-

Скриншоты



-
[cybertorrent.net].t2270.torrent 
Торрент: Зарегистрирован [ 2019-04-24 16:06 ] · 47489FE9CCE488DD1D5F52F29742EA5ED0AD3074

Скачать .torrent

Скачать

15 KB

Статус: проверено
Скачан: 0 раз
Размер: 2,82 GB
terms.php
Профиль ЛС
Показать сообщения:    

Текущее время: 13-Ноя 15:04

Часовой пояс: UTC ± 0



Вы не можете начинать темы
Вы не можете отвечать на сообщения
Вы не можете редактировать свои сообщения
Вы не можете удалять свои сообщения
Вы не можете голосовать в опросах
Вы не можете прикреплять файлы к сообщениям
Вы можете скачивать файлы