Статистика раздачи
Размер:  1,36 GB   |    Зарегистрирован:  7 месяцев 20 дней   |    Скачан:  0 раз

Полного источника не было: Никогда

 
     
 
 

Гость ®

Пол:
Не указан

День да ночь
20/04/16 торрент обновлен, запись трансляции телеканала "ТРО" заменена записью телеканала "Ретро". Преимущества на сравнении.
Жанр: киноповесть
Год выпуска: 1970
Продолжительность: 01:05:38
Режиссёр: Диамара Нижниковская
В ролях: Ольга Сошникова, Анатолий Антосевич, Александра Климова, Надежда Семенцова, Лев Золотухин, Виолетта Жухимович, Сергей Пижель, Любовь Малиновская, Светлана Мазовецкая, Любовь Соколова, Наталья Воробьёва, Светлана Степанова
Описание: Сутки - невеликая мера времени, но 22 июня...
Молодые герои фильма сумели почувствовать и грозные отголоски войны, начавшейся в такой же день 29 лет назад, и свою ответственность за безмятежность мирных будней, и радость встречи с первым глубоким чувством, и необходимость всегда быть вместе, что бы ни случилось...
Доп. информация: Запись потока *.ts со спутника EUTELSAT, ремукс в *.mkv программой VideoReDo.
Качество видео: DVB
Формат видео: MKV
Видео: MPEG Video, 720(768)x576 (4:3), 25,000 кадров/сек, 2783 Кбит/сек
Аудио: MPEG Audio, 48,0 КГц, 128 Кбит/сек, 2 канала

MediaInfo

Общее
Уникальный идентификатор : 83483317104043483253409362836060697164 (0x3ECE4D519FF1574545D43AFB9C58F24C)
Полное имя : D:\Torrent\ДЕНЬ ДА НОЧЬ (RETRO).mkv
Формат : Matroska
Версия формата : Version 2
Размер файла : 1,36 Гбайт
Продолжительность : 1 ч. 5 м.
Режим общего битрейта : Переменный
Общий поток : 2970 Кбит/сек
Программа кодирования : Lavf52.64.2
Библиотека кодирования : Lavf52.64.2
Видео
Идентификатор : 1
Формат : MPEG Video
Версия формата : Version 2
Профиль формата : Main@Main
Параметр BVOP формата : Да
Параметр матрицы формата : Выборочная
Параметр GOP формата : Variable
Структура изображения : Frame
Идентификатор кодека : V_MPEG2
Идентификатор кодека/Информация : MPEG 1 or 2 Video
Продолжительность : 1 ч. 5 м.
Вид битрейта : Переменный
Битрейт : 2783 Кбит/сек
Максимальный битрейт : 2880 Кбит/сек
Ширина : 720 пикселей
Высота : 576 пикселей
Соотношение сторон : 4:3
Соотношение сторон в оригинале : 4:3
Режим частоты кадров : Постоянный
Частота кадров : 25,000 кадров/сек
Стандарт вещания : PAL
Цветовое пространство : YUV
Субдискретизация насыщенности : 4:2:0
Битовая глубина : 8 бит
Тип развёртки : Чересстрочная
Порядок развёртки : Верхнее поле первое
Метод сжатия : С потерями
Бит/(Пиксели*Кадры) : 0.268
Временной код первого кадра : 00:00:00:00
Оригинал временного кода : Group of pictures header
GOP, открыто/закрыто : Открыто
GOP, открыто/закрыто на первом кадре : Закрыто
Размер потока : 1,28 Гбайт (94%)
Default : Да
Forced : Нет
Аудио
Идентификатор : 2
Формат : MPEG Audio
Версия формата : Version 1
Профиль формата : Layer 2
Идентификатор кодека : A_MPEG/L2
Идентификатор кодека/Подсказка : MP2
Продолжительность : 1 ч. 5 м.
Вид битрейта : Постоянный
Битрейт : 128 Кбит/сек
Каналы : 2 канала
Частота : 48,0 КГц
Метод сжатия : С потерями
Задержка видео : 15 мс.
Размер потока : 60,1 Мбайт (4%)
Язык : Russian
Default : Да
Forced : Нет
[cybertorrent.net].t2267.torrent 
Торрент: Зарегистрирован [ 2019-04-24 16:06 ] · 7A01450C132A85DE3C523A6492EF51ABD9514056

Скачать .torrent

Скачать

14 KB

Статус: проверено
Скачан: 0 раз
Размер: 1,36 GB
terms.php
Показать сообщения:    

Текущее время: 15-Дек 11:45

Часовой пояс: UTC ± 0



Вы не можете начинать темы
Вы не можете отвечать на сообщения
Вы не можете редактировать свои сообщения
Вы не можете удалять свои сообщения
Вы не можете голосовать в опросах
Вы не можете прикреплять файлы к сообщениям
Вы можете скачивать файлы