Статистика раздачи
Размер:  1,46 GB   |    Зарегистрирован:  6 месяцев 28 дней   |    Скачан:  0 раз
Сидов:  68  [  0 KB/s  ]  
 
     
 
 

солнышко ®

Пол:
Не указан
Стаж:
8 месяцев 9 дней
Сообщений:
565

Затерянные во льдах / Arctic- Год выхода: 2018
Страна: Исландия
Жанр: драма, приключения
Продолжительность: 01:38:05
Перевод: СУБТИТРЫ
Субтитры: Русские (полные - FOCS), Английские (полные, SDH) (внешние *.srt)
Оригинальная аудиодорожка: Английская-Режиссер:
Джо Пенна / Joe Penna-В ролях:
Мадс Миккельсен, Мария Тельма Смарадоттир-О фильме:
В арктической пустыне — ледяной, снежной, оторванной от мира, где температура воздуха может опускаться до 70⁰С, Хаксли, пилот потерпевшего крушение самолёта, отчаянно борется за жизнь. Он научился справляться с холодом, охотиться, чтобы прокормить себя. В этих условиях ему предстоит заботиться о спасательнице, которая попала в шторм и разбилась. Девушка серьёзно ранена, времени ждать помощи нет: Хаксли вместе с умирающей отправляется в путь.-Релиз групп | | IMDB | КиноПоиск | Сэмпл |-Качество: HDRip
Формат: AVI
Видео: 720x304 (2.37:1), 23.976 fps, XviD build 67 ~1732 kbps avg, 0.33 bit/pixel
Аудио: 48 kHz, AC3 Dolby Digital, 3/2 (L,C,R,l,r) + LFE ch, ~384.00 kbps avg-

Скриншоты

-

MediaInfo

Код:Полное имя : D:\Arctic_2018_HDRip_Sub_by_Dalemake.avi
Формат : AVI
Формат/Информация : Audio Video Interleave
Размер файла : 1,46 Гбайт
Продолжительность : 1 ч. 38 м.
Общий поток : 2126 Кбит/сек
Программа кодирования : VirtualDubMod 1.5.10.3 | www.virtualdub-fr.org || (build 2550/release)
Библиотека кодирования : VirtualDubMod build 2550/release
Видео
Идентификатор : 0
Формат : MPEG-4 Visual
Профиль формата : Advanced Simple@L5
Параметр BVOP формата : 1
Параметр QPel формата : Нет
Параметр GMC формата : Без точки перехода
Параметр матрицы формата : Выборочная
Идентификатор кодека : XVID
Идентификатор кодека/Подсказка : XviD
Продолжительность : 1 ч. 38 м.
Битрейт : 1733 Кбит/сек
Ширина : 720 пикселей
Высота : 304 пикселя
Соотношение сторон : 2,35:1
Частота кадров : 23,976 кадра/сек
Цветовое пространство : YUV
Субдискретизация насыщенности : 4:2:0
Битовая глубина : 8 бит
Тип развёртки : Прогрессивная
Метод сжатия : С потерями
Бит/(Пиксели*Кадры) : 0.330
Размер потока : 1,19 Гбайт (82%)
Библиотека кодирования : XviD 67
Аудио
Идентификатор : 1
Формат : AC-3
Формат/Информация : Audio Coding 3
Расширение режима : CM (complete main)
Параметр Endianness формата : Big
Идентификатор кодека : 2000
Продолжительность : 1 ч. 38 м.
Вид битрейта : Постоянный
Битрейт : 384 Кбит/сек
Каналы : 6 каналов
Расположение каналов : Front: L C R, Side: L R, LFE
Частота : 48,0 КГц
Метод сжатия : С потерями
Размер потока : 269 Мбайт (18%)
Выравнивание : Разделение по промежуткам
Продолжительность промежутка : 42 мс. (1,00 видеокадр)
Время предзагрузки промежутка : 500 мс.

Пример субтитров

Код:19
00:18:46,459 --> 00:18:50,168
Вы меня слышите? Слышите?
20
00:19:20,493 --> 00:19:22,859
Где у вас аптечка?
21
00:19:23,037 --> 00:19:27,246
Вы меня понимаете? Аптечка?
22
00:20:18,759 --> 00:20:19,794
Здравствуйте.
23
00:22:56,000 --> 00:23:02,881
ДВОЕ ВЫЖИВШИХ В ДОЛИНЕ…
24
00:23:02,882 --> 00:23:05,216
Надо уходить.
25
00:23:05,217 --> 00:23:08,880
Здесь нельзя оставаться.
Я вам помогу.
-
[cybertorrent.net].t2260.torrent 
Торрент: Зарегистрирован [ 2019-04-23 15:33 ] · D165384D44456CA088817DAE725D1304A1DF8846

Скачать .torrent

Скачать

15 KB

Статус: проверено
Скачан: 0 раз
Размер: 1,46 GB
terms.php
Профиль [ЛС]
Показать сообщения:    

Текущее время: 22-Ноя 05:28

Часовой пояс: UTC ± 0



Вы не можете начинать темы
Вы не можете отвечать на сообщения
Вы не можете редактировать свои сообщения
Вы не можете удалять свои сообщения
Вы не можете голосовать в опросах
Вы не можете прикреплять файлы к сообщениям
Вы можете скачивать файлы