Статистика раздачи
Размер:  1,17 GB   |    Зарегистрирован:  7 месяцев 16 дней   |    Скачан:  0 раз
Сидов:  7  [  0 KB/s  ]   Личеров:  1  [  0 KB/s  ]  
 
     
 
 

Гость ®

Пол:
Не указан

Подсудимый-- Год выпуска: 2019
Производство: Триикс Медиа
Жанр: Детектив, драма
Продолжительность: 00:48:00
Субтитры: нет-Режиссёр: Максим Бриус-В ролях: Дмитрий Паламарчук, Пётр Рыков, Елена Вожакина, Андрей Терентьев, Владимир Литвинов, Антон Гуляев, Мария Русских, Андрей Марусин, Александр Рыбаков, Игорь Денисов, Владимир Чернышов, Вадим Бурлаков, Пётр Терещенко, Андрей Аладьин, Виталий Бисеров, Руслан Китайгородский-Описание: Следователь СК Андрей Климов считает главной целью не рутинную «бумажную» работу в качестве коррумпированного чиновника, а разоблачение преступников вне зависимости от их финансового положения и статуса в обществе. У Климова дружная семья: любимая жена и красавица-дочка. Но, однажды уснув у себя дома, он просыпается в тюремной камере: его обвиняют в убийстве жены и дочери. Между последними воспоминаниями и этим днём прошло четыре месяца, которые полностью стёрты из его памяти. Единственное, что помнит Климов — это то, что он приступил к расследованию дела о гибели президента солидной компании, в убийстве которого подозревал его брата-близнеца.
Сэмпл: http://multi-up.com/1230192-Релиз от: 25Kuzmich-Качество: SATRip
Формат: AVI
Видео кодек: XviD
Аудио кодек: MP3
Видео: 720x400 (16:9), 25.000 fps, XviD, 1529 Kbps, 0.21 bit/pixel
Аудио: 48 kHz, MP3, 2 ch, 192 Kbps
Реклама: Нет

MI

General
Complete name : Downloads\Podsudimyy.2019.XviD.SATRip.25Kuzmich
Format : AVI
Format/Info : Audio Video Interleave
File size : 600 MiB
Duration : 48mn 28s
Overall bit rate : 1 731 Kbps
Writing application : VirtualDubMod 1.5.10.3 | www.virtualdub-fr.org || (build 2550/release)
Writing library : VirtualDubMod build 2550/release
Video #0
ID : 0
Format : MPEG-4 Visual
Format profile : Advanced Simple@L5
Format settings, BVOP : 1
Format settings, QPel : No
Format settings, GMC : No warppoints
Format settings, Matrix : Default (MPEG)
Codec ID : XVID
Codec ID/Hint : XviD
Duration : 48mn 28s
Bit rate : 1 529 Kbps
Width : 720 pixels
Height : 400 pixels
Display aspect ratio : 16:9
Frame rate : 25.000 fps
Color space : YUV
Chroma subsampling : 4:2:0
Bit depth : 8 bits
Scan type : Progressive
Compression mode : Lossy
Bits/(Pixel*Frame) : 0.212
Stream size : 530 MiB (88%)
Writing library : XviD 73
Audio #1
ID : 1
Format : MPEG Audio
Format version : Version 1
Format profile : Layer 3
Mode : Joint stereo
Mode extension : MS Stereo
Codec ID : 55
Codec ID/Hint : MP3
Duration : 48mn 28s
Bit rate mode : Constant
Bit rate : 192 Kbps
Channel(s) : 2 channels
Sampling rate : 48.0 KHz
Compression mode : Lossy
Stream size : 66.6 MiB (11%)
Alignment : Aligned on interleaves
Interleave, duration : 40 ms (1.00 video frame)
Interleave, preload duration : 504 ms
Writing library : LAME3.99r
Encoding settings : -m j -V 4 -q 2 -lowpass 18.6 -b 192

Скриншоты

Внимание! Раздача ведётся путём добавления новых серий:

(1) остановить скачивание,
(2) удалить старый торрент у себя из клиента (старые серии удалять не надо),
(3) скачать новый торрент и запустить его у себя в клиенте вместо старого, при этом указать клиенту путь в старую папку куда и должно происходить скачивание новых серий.
Ваш клиент при этом должен произвести хеширование (проверку) старой папки (если не производит сам - помогите ему сделать это), и будет докачивать только те серии которых у вас ещё нет. Старые серии при этом не удаляются, а продолжают раздаваться!
Eсли вы уже удалили старые серии, то предотвратить повторную закачку старых серий можно, отжав галочку в соответсвующих местах при запуске нового торрента. По возможности, желательно не удалять старые серии как можно дольше чтобы релизёр не столько продолжал раздавать старые серии, а смог сконцентрироваться на новых
.
Предыдущие и альтернативные раздачи
[cybertorrent.net].t2257.torrent 
Торрент: Зарегистрирован [ 2019-04-23 15:33 ] · F3601FC57BC5BC23BB9585578D0F181215A0EECD

Скачать .torrent

Скачать

12 KB

Статус: проверено
Скачан: 0 раз
Размер: 1,17 GB
terms.php
Показать сообщения:    

Текущее время: 10-Дек 15:28

Часовой пояс: UTC ± 0



Вы не можете начинать темы
Вы не можете отвечать на сообщения
Вы не можете редактировать свои сообщения
Вы не можете удалять свои сообщения
Вы не можете голосовать в опросах
Вы не можете прикреплять файлы к сообщениям
Вы можете скачивать файлы