Статистика раздачи
Размер:  1,77 GB   |    Зарегистрирован:  6 месяцев 27 дней   |    Скачан:  0 раз

Полного источника не было: Никогда

 
     
 
 

солнышко ®

Пол:
Не указан
Стаж:
8 месяцев 8 дней
Сообщений:
565

Норвежские кирпичи / Ремонт по норвежски / Norske byggeklosser
Страна: Норвегия
Жанр: комедия
Год выпуска: 2018
Продолжительность: 01:39:35
Перевод: Любительский (двухголосый закадровый) - Владислав Данилов и Алёна Соколова
Субтитры: русские
Оригинальная аудиодорожка: норвежский
Режиссер: Арилд Фрёлих / Arild Fröhlich
В ролях: Атле Антонсен, Андерс Босмо Кристиансен, Энн Марит Якобсен, Ине Ф. Джэнсен
Описание: Йенс и Мерете узнали, что стали наследниками большого дома, и теперь они могут съехать от матери Йенса. Влюбленные уверены, что потянут капитальный ремонт здания — им хочется превратить его из старинного особняка в современное жилище, в котором будет комфортно жить их будущим детям. Пара нанимает рабочих, но вскоре убеждается, что работники из них так себе, к тому же они постоянно отодвигают сроки окончания ремонта. Проблемы постепенно накапливаются и вызывают ещё большее недовольство у влюбленных. В конце концов Йенс и Мерете решают действовать более жёстко…
Сэмпл
Качество видео: BDRip
Формат видео: AVI
Видео: 720x304 (2.37:1), 25 fps, XviD build 73 ~1636 kbps avg, 0.30 bit/pixel
Аудио: 48 kHz, AC3 Dolby Digital, 3/2 (L,C,R,l,r) + LFE ch, ~448 kbps - двухголосый
Аудио: 48 kHz, AC3 Dolby Digital, 3/2 (L,C,R,l,r) + LFE ch, ~448 kbps - оригинал (отдельным файлом)
Формат субтитров: softsub (SRT)

MediaInfo

General
Complete name : H:\Norske.byggeklosser.2009.bdrip_[1.46]_[teko]\Norske.byggeklosser.2009.bdrip_[1.46].avi
Format : AVI
Format/Info : Audio Video Interleave
File size : 1.46 GiB
Duration : 1h 39mn
Overall bit rate : 2 094 Kbps
Writing application : VirtualDubMod 1.5.10.3 | www.virtualdub-fr.org || (build 2550/release)
Writing library : VirtualDubMod build 2550/release
Video
ID : 0
Format : MPEG-4 Visual
Format profile : Advanced Simple@L5
Format settings, BVOP : 2
Format settings, QPel : No
Format settings, GMC : No warppoints
Format settings, Matrix : Custom
Codec ID : XVID
Codec ID/Hint : XviD
Duration : 1h 39mn
Bit rate : 1 637 Kbps
Width : 720 pixels
Height : 304 pixels
Display aspect ratio : 2.35:1
Frame rate : 25.000 fps
Color space : YUV
Chroma subsampling : 4:2:0
Bit depth : 8 bits
Scan type : Progressive
Compression mode : Lossy
Bits/(Pixel*Frame) : 0.299
Stream size : 1.14 GiB (78%)
Writing library : XviD 73
Audio
ID : 1
Format : AC-3
Format/Info : Audio Coding 3
Mode extension : CM (complete main)
Format settings, Endianness : Big
Codec ID : 2000
Duration : 1h 39mn
Bit rate mode : Constant
Bit rate : 448 Kbps
Channel(s) : 6 channels
Channel positions : Front: L C R, Side: L R, LFE
Sampling rate : 48.0 KHz
Frame rate : 31.250 fps (1536 spf)
Compression mode : Lossy
Stream size : 319 MiB (21%)
Alignment : Split accross interleaves
Interleave, duration : 40 ms (1.00 video frame)
Interleave, preload duratio : 500 ms
Релиз группы:
--
[cybertorrent.net].t2254.torrent 
Торрент: Зарегистрирован [ 2019-04-23 15:33 ] · 48E6E9919E98AACBF85B0568FB3FA3CBA0AECD00

Скачать .torrent

Скачать

18 KB

Статус: проверено
Скачан: 0 раз
Размер: 1,77 GB
terms.php
Профиль [ЛС]
Показать сообщения:    

Текущее время: 21-Ноя 01:11

Часовой пояс: UTC ± 0



Вы не можете начинать темы
Вы не можете отвечать на сообщения
Вы не можете редактировать свои сообщения
Вы не можете удалять свои сообщения
Вы не можете голосовать в опросах
Вы не можете прикреплять файлы к сообщениям
Вы можете скачивать файлы