Статистика раздачи
Нет
 
     
 
 

K15 ®

Пол:
Мужской
Стаж:
1 год 3 месяца
Сообщений:
400

- Райя и последний дракон / Raya and the Last Dragon - Информация о фильме:
Название: Райя и последний дракон
Оригинальное название: Raya and the Last Dragon
Год выхода: 2021
Жанр: Мультфильм, фэнтези, боевик, комедия, приключения, семейный
Режиссер: Дон Холл, Карлос Лопес Эстрада, Пол Бриггс
В ролях: Келли Мари Трэн, Аквафина, Айзек Ванг, Джемма Чан, Дэниэл Дэ Ким, Бенедикт Вонг, Джона Сяо, Сандра О, Талия Чан, Люсиль Сун, Алан Тьюдик, Гордон Ип, Дичен Лакмэн, Патти Харрисон, Джонатан Пак, Сон Ган
Описание: Отважной воительнице по имени Райя и её верному спутнику Тук-Туку предстоит покинуть родное королевство Кумандра, чтобы отыскать последнего оставшегося в мире дракона, и с его помощью вернуть надежду на победу над могущественным врагом.

Страна: США
Студия: Walt Disney Animation Studios, Walt Disney Pictures
Продолжительность: 01:47:28
Перевод: Дублированный - Line | * он-лайн кинотеатр KinoPub

Информация о файле:
Кодек: AVC
Формат: MKV
Качество: WEB-DLRip-AVC
Видео: MPEG-4 AVC, 1024x428, 23.976 fps, 1740 kbps
Аудио RU: AAC-HE, 2 ch, 48 kHz, 96 kbps
Аудио EN: AAC-HE, 2 ch, 48 kHz, 96 kbps
Субтитры: Русские (Full [FOCS]), английские, испанские, французские, немецкие, итальянские, португальские | DSNP
Навигация по главам: Нет

Скриншоты

MediaInfo

x264 info: frame I:1299 Avg QP:14.50 size: 75006
x264 info: frame P:40072 Avg QP:18.53 size: 19490
x264 info: frame B:113238 Avg QP:20.99 size: 4576
x264 info: consecutive B-frames: 3.5% 3.4% 9.5% 51.0% 12.7% 14.8% 2.0% 2.5% 0.2% 0.1% 0.3%
**************************************************
General
Unique ID : 44123774999559070534367403439646660335 (0x2131EE11681F3D8A279F35B0C6BD56EF)
Complete name : D:uTorrentРипы_от_wolf1245_MediaBitRaya and the Last Dragon.2021.DUB.Line.WEB-DLRip-AVC_wolf1245_MediaBit.mkv
Format : Matroska
Format version : Version 4
File size : 1.45 GiB
Duration : 1 h 47 min
Overall bit rate : 1 936 kb/s
Movie name : Raya and the Last Dragon.2021.DUB.Line.WEB-DLRip-AVC_wolf1245_MediaBit
Encoded date : UTC 2021-03-07 12:18:13
Writing application : mkvmerge v55.0.0 ('Waiting For Space') 64-bit
Writing library : libebml v1.4.2 + libmatroska v1.6.4
Cover : Yes
Attachments : Cover.png
Video
ID : 1
Format : AVC
Format/Info : Advanced Video Codec
Format profile : High@L4.1
Format settings : CABAC / 12 Ref Frames
Format settings, CABAC : Yes
Format settings, Reference frames : 12 frames
Codec ID : V_MPEG4/ISO/AVC
Duration : 1 h 47 min
Bit rate : 1 740 kb/s
Width : 1 024 pixels
Height : 428 pixels
Display aspect ratio : 2.40:1
Frame rate mode : Constant
Frame rate : 23.976 (24000/1001) FPS
Color space : YUV
Chroma subsampling : 4:2:0
Bit depth : 8 bits
Scan type : Progressive
Bits/(Pixel*Frame) : 0.166
Stream size : 1.31 GiB (90%)
Title : _wolf1245_MediaBit
Writing library : x264 core 157 r2958 57baac4
Encoding settings : cabac=1 / ref=12 / deblock=1:-2:-1 / analyse=0x3:0x133 / me=umh / subme=10 / psy=1 / psy_rd=1.00:0.00 / mixed_ref=1 / me_range=32 / chroma_me=1 / trellis=2 / 8x8dct=1 / cqm=0 / deadzone=21,11 / fast_pskip=1 / chroma_qp_offset=-2 / threads=10 / lookahead_threads=2 / sliced_threads=0 / nr=0 / decimate=1 / interlaced=0 / bluray_compat=0 / constrained_intra=0 / bframes=10 / b_pyramid=2 / b_adapt=2 / b_bias=0 / direct=3 / weightb=1 / open_gop=0 / weightp=2 / keyint=240 / keyint_min=24 / scenecut=40 / intra_refresh=0 / rc_lookahead=60 / rc=2pass / mbtree=1 / bitrate=1740 / ratetol=1.0 / qcomp=0.60 / qpmin=0 / qpmax=69 / qpstep=4 / cplxblur=20.0 / qblur=0.5 / vbv_maxrate=50000 / vbv_bufsize=62500 / nal_hrd=none / filler=0 / ip_ratio=1.40 / aq=1:0.80
Language : English
Default : Yes
Forced : No
Color range : Limited
Color primaries : BT.709
Transfer characteristics : BT.709
Matrix coefficients : BT.709
Audio #1
ID : 2
Format : AAC LC SBR
Format/Info : Advanced Audio Codec Low Complexity with Spectral Band Replication
Commercial name : HE-AAC
Format settings : Implicit
Codec ID : A_AAC-2
Duration : 1 h 47 min
Bit rate : 96.0 kb/s
Channel(s) : 2 channels
Channel layout : L R
Sampling rate : 48.0 kHz
Frame rate : 23.438 FPS (2048 SPF)
Compression mode : Lossy
Stream size : 73.8 MiB (5%)
Title : DUB | Line | KinoPub
Language : Russian
Default : Yes
Forced : No
Audio #2
ID : 3
Format : AAC LC SBR
Format/Info : Advanced Audio Codec Low Complexity with Spectral Band Replication
Commercial name : HE-AAC
Format settings : Implicit
Codec ID : A_AAC-2
Duration : 1 h 47 min
Bit rate : 96.0 kb/s
Channel(s) : 2 channels
Channel layout : L R
Sampling rate : 48.0 kHz
Frame rate : 23.438 FPS (2048 SPF)
Compression mode : Lossy
Stream size : 73.8 MiB (5%)
Title : Original | English
Language : English
Default : No
Forced : No
Text #1
ID : 4
Format : UTF-8
Codec ID : S_TEXT/UTF8
Codec ID/Info : UTF-8 Plain Text
Duration : 1 h 34 min
Bit rate : 84 b/s
Count of elements : 1256
Stream size : 58.3 KiB (0%)
Language : Russian
Default : No
Forced : No
Text #2
ID : 5
Format : UTF-8
Codec ID : S_TEXT/UTF8
Codec ID/Info : UTF-8 Plain Text
Duration : 1 h 37 min
Bit rate : 68 b/s
Count of elements : 1919
Stream size : 48.8 KiB (0%)
Title : English (SDH)
Language : English
Default : No
Forced : No
Text #3
ID : 6
Format : UTF-8
Codec ID : S_TEXT/UTF8
Codec ID/Info : UTF-8 Plain Text
Duration : 1 h 45 min
Bit rate : 42 b/s
Count of elements : 1179
Stream size : 32.8 KiB (0%)
Title : Deutsch
Language : German
Default : No
Forced : No
Text #4
ID : 7
Format : UTF-8
Codec ID : S_TEXT/UTF8
Codec ID/Info : UTF-8 Plain Text
Duration : 1 h 46 min
Bit rate : 53 b/s
Count of elements : 1116
Stream size : 41.6 KiB (0%)
Title : Deutsch (SDH)
Language : German
Default : No
Forced : No
Text #5
ID : 8
Format : UTF-8
Codec ID : S_TEXT/UTF8
Codec ID/Info : UTF-8 Plain Text
Duration : 1 h 45 min
Bit rate : 43 b/s
Count of elements : 1114
Stream size : 33.4 KiB (0%)
Title : Français
Language : French
Default : No
Forced : No
Text #6
ID : 9
Format : UTF-8
Codec ID : S_TEXT/UTF8
Codec ID/Info : UTF-8 Plain Text
Duration : 1 h 47 min
Bit rate : 55 b/s
Count of elements : 1604
Stream size : 43.6 KiB (0%)
Title : Français (SDH)
Language : French
Default : No
Forced : No
Text #7
ID : 10
Format : UTF-8
Codec ID : S_TEXT/UTF8
Codec ID/Info : UTF-8 Plain Text
Duration : 1 h 45 min
Bit rate : 41 b/s
Count of elements : 1157
Stream size : 32.4 KiB (0%)
Title : Español
Language : Spanish
Default : No
Forced : No
Text #8
ID : 11
Format : UTF-8
Codec ID : S_TEXT/UTF8
Codec ID/Info : UTF-8 Plain Text
Duration : 1 h 45 min
Bit rate : 42 b/s
Count of elements : 1160
Stream size : 32.5 KiB (0%)
Title : Italiano
Language : Italian
Default : No
Forced : No
Text #9
ID : 12
Format : UTF-8
Codec ID : S_TEXT/UTF8
Codec ID/Info : UTF-8 Plain Text
Duration : 1 h 45 min
Bit rate : 44 b/s
Count of elements : 1156
Stream size : 34.7 KiB (0%)
Title : Português
Language : Portuguese
Default : No
Forced : No
Релиз от: &
Автор релиза:
Профиль [ЛС]
Показать сообщения:    

Текущее время: 23-Апр 06:18

Часовой пояс: UTC ± 0



Вы не можете начинать темы
Вы не можете отвечать на сообщения
Вы не можете редактировать свои сообщения
Вы не можете удалять свои сообщения
Вы не можете голосовать в опросах
Вы не можете прикреплять файлы к сообщениям
Вы не можете скачивать файлы