Статистика раздачи
Размер:  243 MB   |    Зарегистрирован:  8 месяцев 24 дня   |    Скачан:  0 раз

Полного источника не было: Никогда

 
     
 
 

Гость ®

Пол:
Не указан

Края белые - середина зелёная / Abi gali balti - viducis zaļš
Страна: СССР (Латвийская республика)
Жанр: мультфильм
Продолжительность: 00:13:46
Год выпуска: 1977
Перевод: Любительский (одноголосый закадровый) progulkin
Русские субтитры: нет
Режиссёр: Ансис Берзиньш / Ansins Bērziņš
Композитор: Петерис Васкс / Pēteris Vasks
Описание: Музыкальный мультфильм по мотивам латышских народных присказок и загадок.
Качество: DVDRip
Формат: AVI
Видео: 2265 kbps, 720х544 (4:3), 25.000 fps, MPEG-4 Visual (XviD)
Аудио: 192 kbps, 48.0 kHz, 2 channels, MPEG Audio (MP3)
Субтитры: отсутствуют

Подробные технические данные

General
Complete name : Abi gali balti, vidugis zals (1977).avi
Format : AVI
Format/Info : Audio Video Interleave
File size : 243 MiB
Duration : 13mn 46s
Overall bit rate : 2 466 Kbps
Writing application : VirtualDubMod 1.5.10.2 (build 2540/release)
Writing library : VirtualDub build 35491/release
Video
ID : 0
Format : MPEG-4 Visual
Format profile : Advanced Simple@L5
Format settings, BVOP : 2
Format settings, QPel : No
Format settings, GMC : No warppoints
Format settings, Matrix : Default (H.263)
Codec ID : XVID
Codec ID/Hint : XviD
Duration : 13mn 46s
Bit rate : 2 265 Kbps
Width : 720 pixels
Height : 544 pixels
Display aspect ratio : 4:3
Frame rate : 25.000 fps
Color space : YUV
Chroma subsampling : 4:2:0
Bit depth : 8 bits
Scan type : Progressive
Compression mode : Lossy
Bits/(Pixel*Frame) : 0.231
Stream size : 223 MiB (92%)
Writing library : XviD 73
Audio
ID : 1
Format : MPEG Audio
Format version : Version 1
Format profile : Layer 3
Mode : Joint stereo
Mode extension : MS Stereo
Codec ID : 55
Codec ID/Hint : MP3
Duration : 13mn 46s
Bit rate mode : Constant
Bit rate : 192 Kbps
Channel(s) : 2 channels
Sampling rate : 48.0 KHz
Compression mode : Lossy
Stream size : 18.9 MiB (8%)
Alignment : Aligned on interleaves
Interleave, duration : 40 ms (1.00 video frame)
Interleave, preload duration : 504 ms

Скриншоты

[cybertorrent.net].t225.torrent 
Торрент: Зарегистрирован [ 2019-03-18 10:04 ] · A1BA5D128880B93A9ABAB3802F855D1F7B6D289C

Скачать .torrent

Скачать

20 KB

Статус: проверено
Скачан: 0 раз
Размер: 243 MB
terms.php
Показать сообщения:    

Текущее время: 12-Дек 04:56

Часовой пояс: UTC ± 0



Вы не можете начинать темы
Вы не можете отвечать на сообщения
Вы не можете редактировать свои сообщения
Вы не можете удалять свои сообщения
Вы не можете голосовать в опросах
Вы не можете прикреплять файлы к сообщениям
Вы можете скачивать файлы