Статистика раздачи
Размер:  1,47 GB   |    Зарегистрирован:  6 месяцев 26 дней   |    Скачан:  0 раз

Полного источника не было: Никогда

 
     
 
 

serzh ®

Пол:
Не указан
Стаж:
8 месяцев 5 дней
Сообщений:
384

Воспоминания о Брайтон Бич / Brighton Beach Memoirs
Страна: СШA
Студия: Rastar Pictures
Жанр: Комедия
Год выпуска: 1986
Продолжительность: 01:49:31
Перевод: Одноголосый закадровый | renege79
Субтитры: Русские (leburs & bak), английские
Оригинальная аудиодорожка: Английский
Режиссер: Джин Сэкс / Gene Saks
В ролях:
Джонатан Силвермен, Блайт Даннер, Стэйси Глик, Лиза Вальц, Джудит Айви, Боб Диши, Брайан Дриллинжер, Джеймс Хэнди, Бетти Хенрице, Стивен Хилл, Дэвид Маргулис, Файвуш Финкель, Кэтлин Дойл
Описание:
Фильм поставлен по автобиографической пьесе Поля Саймона. Проникнутый теплотой и тоской по юности рассказ о подростке из Бруклина Юджина Морриса Джерома (Джонатан Силверман) конца 1930-х годов. Блестящая игра двух женщин - Блайт Дэннр в роли беспокойной еврейской матери и Джудит Айви в роли овдовевшей тетки Бланш - наполняет очарованием трогательные сцены жизни в семье.-| IMDb | КиноПоиск | Скачать сэмпл |
Исходник для рипа: BDRemux 1080p, за который спасибо porvaliparus-Качество видео: BDRip
Формат видео: AVI
Видео: 720x400 (16:9), 23.976 fps, XviD build 67 ~1523 kbps avg, 0.221 bit/pixel
Аудио 1: 48 kHz, AC3 Dolby Digital, 2/0 (L,R) ch, ~192 kbps | Одноголосый закадровый (renege79)
Аудио 2: 48 kHz, AC3 Dolby Digital, 2/0 (L,R) ch, ~192 kbps | Английский
Формат субтитров: softsub (SRT)

MediaInfo

Vospominaniya.o.Braiiton.Bich.1986.BDRip.avi
Формат : AVI
Формат/Информация : Audio Video Interleave
Размер файла : 1,46 Гбайт
Продолжительность : 1 ч. 49 м.
Общий поток : 1921 Кбит/сек
Название фильма : Воспоминания о Брайтон Бич / Brighton Beach Memoirs (1986) BDRip
Режиссёр : Джин Сэкс / Gene Saks
Жанр : Комедия
Программа кодирования : VirtualDubMod 1.5.10.2 (build 2542/release)
Формат оригинала/Имя : Художественный фильм
Авторское право : США, Rastar Pictures
Примечание : Rip by vitolinform
Видео
Идентификатор : 0
Формат : MPEG-4 Visual
Профиль формата : Advanced Simple@L5
Настройки формата : BVOP2
Параметр BVOP формата : 2
Параметр QPel формата : Нет
Параметр GMC формата : Без точки перехода
Параметр матрицы формата : Default (MPEG)
Идентификатор кодека : XVID
Идентификатор кодека/Подсказка : XviD
Продолжительность : 1 ч. 49 м.
Битрейт : 1523 Кбит/сек
Ширина : 720 пикселей
Высота : 400 пикселей
Соотношение сторон : 16:9
Частота кадров : 23,976 (24000/1001) кадра/сек
Цветовое пространство : YUV
Субдискретизация насыщенности : 4:2:0
Битовая глубина : 8 бит
Тип развёртки : Прогрессивная
Метод сжатия : С потерями
Бит/(Пиксели*Кадры) : 0.221
Размер потока : 1,16 Гбайт (79%)
Библиотека кодирования : XviD 67
Аудио #1
Идентификатор : 1
Формат : AC-3
Формат/Информация : Audio Coding 3
Идентификатор кодека : 2000
Продолжительность : 1 ч. 49 м.
Вид битрейта : Постоянный
Битрейт : 192 Кбит/сек
Каналы : 2 канала
Расположение каналов : Front: L R
Частота : 48,0 КГц
Частота кадров : 31,250 кадров/сек (1536 SPF)
Битовая глубина : 16 бит
Метод сжатия : С потерями
Размер потока : 150 Мбайт (10%)
Выравнивание : Разделение по промежуткам
Продолжительность промежутка : 42 мс. (1,00 видеокадр)
Время предзагрузки промежутка : 500 мс.
Заголовок : Russian (VO Renege79)
ServiceKind/String : Complete Main
Аудио #2
Идентификатор : 2
Формат : AC-3
Формат/Информация : Audio Coding 3
Идентификатор кодека : 2000
Продолжительность : 1 ч. 49 м.
Вид битрейта : Постоянный
Битрейт : 192 Кбит/сек
Каналы : 2 канала
Расположение каналов : Front: L R
Частота : 48,0 КГц
Частота кадров : 31,250 кадров/сек (1536 SPF)
Битовая глубина : 16 бит
Метод сжатия : С потерями
Размер потока : 150 Мбайт (10%)
Выравнивание : Разделение по промежуткам
Продолжительность промежутка : 42 мс. (1,00 видеокадр)
Время предзагрузки промежутка : 500 мс.
Заголовок : English
ServiceKind/String : Complete Main

Скриншот c названием фильма

Скриншоты

[cybertorrent.net].t2220.torrent 
Торрент: Зарегистрирован [ 2019-04-21 16:40 ] · 9F728EE059BA719F444E9FD4279F795E2C166CB4

Скачать .torrent

Скачать

15 KB

Статус: проверено
Скачан: 0 раз
Размер: 1,47 GB
terms.php
Профиль ЛС
Показать сообщения:    

Текущее время: 17-Ноя 17:19

Часовой пояс: UTC ± 0



Вы не можете начинать темы
Вы не можете отвечать на сообщения
Вы не можете редактировать свои сообщения
Вы не можете удалять свои сообщения
Вы не можете голосовать в опросах
Вы не можете прикреплять файлы к сообщениям
Вы можете скачивать файлы