Статистика раздачи
Размер:  1,37 GB   |    Зарегистрирован:  5 месяцев 27 дней   |    Скачан:  0 раз

Полного источника не было: Никогда

   
 

солнышко ®

Пол:
Не указан
Стаж:
7 месяцев 6 дней
Сообщений:
565

Лагерь Манна / Camp Manna
Страна: США
Жанр: комедия
Год выпуска: 2018
Продолжительность: 01:30:38
Перевод: Авторский (одноголосый закадровый) Юрий Живов
Субтитры: нет
Режиссер: Эрик Скотт Джонсон / Eric Scott Johnson, Эрик Мачиэла / Eric Machiela
В ролях: Гэри Бьюзи / Gary Busey, Джимми Татро / Jimmy Tatro, Джои Морган / Joey Morgan, Люк Клайн / Luke Klein, Бретт Джонсон / Brett Johnson, Раммел Чан / Rammel Chan, Кевин Йон / Kevin Yon, Ивэн Кунс / Evan Koons, Уилл Клинджер / Will Clinger, Каелин Стокуэлл / Kaelin Stockwell, Бенжамин Чемберлен / Benjamin Chamberlain и др.
Описание: Иэн Флетчер, неверующий, отправляется в христианский лагерь, где он вынужден участвовать в библейской тематической олимпиаде, известной как «Игры Бога».
Доп. информация: https://www.imdb.com/title/tt4668790/
Внимание! Присутствует ненормативная лексика!
Перевод - Юрий Живов 2019
Сведение звука - Diablo
Сэмпл: http://multi-up.com/1229986
Качество видео: WEB-DLRip
Формат видео: AVI
Видео: XviD, 720x400 (16:9), 23.976 fps, 1966 kbps
Аудио: AC3, 48000 Hz, 2 ch, 192 kbps

MediaInfo

General
Complete name : H:\РУТРЕКЕР\Лагерь Манна\Camp Manna (2018).avi
Format : AVI
Format/Info : Audio Video Interleave
File size : 1.37 GiB
Duration : 1h 30mn
Overall bit rate : 2 168 Kbps
Writing application : VirtualDubMod 1.5.10.3 | www.virtualdub-fr.org || (build 2550/release)
Writing library : VirtualDubMod build 2550/release
Video
ID : 0
Format : MPEG-4 Visual
Format profile : Advanced Simple@L5
Format settings, BVOP : 1
Format settings, QPel : No
Format settings, GMC : No warppoints
Format settings, Matrix : Default (MPEG)
Codec ID : XVID
Codec ID/Hint : XviD
Duration : 1h 30mn
Bit rate : 1 966 Kbps
Width : 720 pixels
Height : 400 pixels
Display aspect ratio : 16:9
Frame rate : 23.976 fps
Color space : YUV
Chroma subsampling : 4:2:0
Bit depth : 8 bits
Scan type : Progressive
Compression mode : Lossy
Bits/(Pixel*Frame) : 0.285
Stream size : 1.24 GiB (91%)
Writing library : XviD 1.2.1 (UTC 2008-12-04)
Audio
ID : 1
Format : AC-3
Format/Info : Audio Coding 3
Mode extension : CM (complete main)
Format settings, Endianness : Big
Codec ID : 2000
Duration : 1h 30mn
Bit rate mode : Constant
Bit rate : 192 Kbps
Channel(s) : 2 channels
Channel positions : Front: L R
Sampling rate : 48.0 KHz
Bit depth : 16 bits
Compression mode : Lossy
Stream size : 124 MiB (9%)
Alignment : Split accross interleaves
Interleave, duration : 42 ms (1.00 video frame)
Interleave, preload duration : 500 ms

Скриншот c названием фильма

[cybertorrent.net].t2218.torrent 
Торрент: Зарегистрирован [ 2019-04-21 16:40 ] · 40964FEA252487FF9A71BE1E74F49D296D3DD448

Скачать .torrent

Скачать

14 KB

Статус: проверено
Скачан: 0 раз
Размер: 1,37 GB
terms.php
Профиль ЛС
Показать сообщения:    

Текущее время: 19-Окт 09:15

Часовой пояс: UTC ± 0



Вы не можете начинать темы
Вы не можете отвечать на сообщения
Вы не можете редактировать свои сообщения
Вы не можете удалять свои сообщения
Вы не можете голосовать в опросах
Вы не можете прикреплять файлы к сообщениям
Вы можете скачивать файлы