Статистика раздачи
Размер:  2,41 GB   |    Зарегистрирован:  6 месяцев 23 дня   |    Скачан:  0 раз

Полного источника не было: Никогда

 
     
 
 

Гость ®

Пол:
Не указан

Женская версия. Дедушкина внучка
Год выпуска: 2019
Производство: Аквилон Медиа
Жанр: детектив, мелодрама
Продолжительность: ~00:48:00 серия
Субтитры: нет
Режиссёр: Валерия Ивановская
В ролях: Софья Ардова, Кирилл Жандаров, Владислав Канопка, Илья Коробко, Галина Сазонова, Анатолий Котенёв

Описание: Таня – внучка легендарного следователя Васильева и сама начинающий следователь. Дедушкины гены не спят: Таня фонтанирует самыми неожиданными идеями по поводу текущих дел и быстро завоёвывает любовь и уважение коллег. За одним досадным исключением: краса и гордость отдела, плейбой Ваня Дудин, не видит в Тане решительно ничего особенного. Впрочем, это до первого совместного дела. А оно оказывается заковыристым. Убита топовая блогерша Алёна Бон. Свидетелей тысячи – все, кто смотрел видеотрансляцию, во время которой и разыгралась драма. Вот только понять, что же они видели, подписчики Алёны не могут. Бабушка Тани советует ей перечитать архивы деда – вдруг там найдётся подсказка? Таня только смеётся: советские следователи вряд ли имели дело с видеохостингами. Но, как ни странно, разгадка находится именно в дедушкином шкафу…

Реклама: Нет.
Кино-театр
Все раздачи сериала
Sample
Качество: WEBRip - Files-x
Формат: AVI
Видео кодек: XviD
Аудио кодек: AC3
Видео: 720x400 (1.80:1), 25 fps, XviD build 73 ~1600 kbps avg, 0.222 bit/pixel
Аудио: 48.0 kHz, AC3 Dolby Digital, 2/0 (L,R) ch, ~ 192 kbps

MI

General
Complete name : D:\Женская версия. Дедушкина внучка. 2019.WEB-DLRip. Files-x\01. Женская версия. Дедушкина внучка. 2019.WEB-DLRip. Files-x.avi
Format : AVI
Format/Info : Audio Video Interleave
File size : 608 MiB
Duration : 47 min 12 s
Overall bit rate : 1 802 kb/s
Writing application : VirtualDubMod 1.5.10.3 | www.virtualdub-fr.org || (build 2550/release)
Writing library : VirtualDubMod build 2550/release
Video
ID : 0
Format : MPEG-4 Visual
Format profile : Advanced Simple@L5
Format settings : BVOP1 / Custom Matrix
Format settings, BVOP : 1
Format settings, QPel : No
Format settings, GMC : No warppoints
Format settings, Matrix : Custom
Codec ID : XVID
Codec ID/Hint : XviD
Duration : 47 min 12 s
Bit rate : 1 600 kb/s
Width : 720 pixels
Height : 400 pixels
Display aspect ratio : 16:9
Frame rate : 25.000 FPS
Color space : YUV
Chroma subsampling : 4:2:0
Bit depth : 8 bits
Scan type : Progressive
Compression mode : Lossy
Bits/(Pixel*Frame) : 0.222
Stream size : 540 MiB (89%)
Writing library : XviD 73
Audio
ID : 1
Format : AC-3
Format/Info : Audio Coding 3
Codec ID : 2000
Duration : 47 min 12 s
Bit rate mode : Constant
Bit rate : 192 kb/s
Channel(s) : 2 channels
Channel positions : Front: L R
Sampling rate : 48.0 kHz
Frame rate : 31.250 FPS (1536 SPF)
Bit depth : 16 bits
Compression mode : Lossy
Stream size : 64.8 MiB (11%)
Alignment : Split accross interleaves
Interleave, duration : 40 ms (1.00 video frame)
Interleave, preload duratio : 500 ms
Service kind : Complete Main

Скриншоты


[cybertorrent.net].t2214.torrent 
Торрент: Зарегистрирован [ 2019-04-21 16:40 ] · FE5C9754B61B303D34BB0EF6547C61CF8D27551C

Скачать .torrent

Скачать

13 KB

Статус: проверено
Скачан: 0 раз
Размер: 2,41 GB
terms.php
Показать сообщения:    

Текущее время: 14-Ноя 17:17

Часовой пояс: UTC ± 0



Вы не можете начинать темы
Вы не можете отвечать на сообщения
Вы не можете редактировать свои сообщения
Вы не можете удалять свои сообщения
Вы не можете голосовать в опросах
Вы не можете прикреплять файлы к сообщениям
Вы можете скачивать файлы