Статистика раздачи
Размер:  1,46 GB   |    Зарегистрирован:  6 месяцев 26 дней   |    Скачан:  0 раз

Полного источника не было: Никогда

 
     
 
 

солнышко ®

Пол:
Не указан
Стаж:
8 месяцев 5 дней
Сообщений:
565

Любить нельзя расстаться / El amor menos pensado
Страна: Аргентина
Жанр: мелодрама, комедия
Год выпуска: 2018
Продолжительность: 02:09:37-Перевод: Профессиональный (многоголосый закадровый) | iTunes
Субтитры: нет
Оригинальная аудиодорожка: нет-Режиссер: Хуан Вера / Juan Vera-В ролях: Рикардо Дарин, Мерседес Моран, Клаудия Фонтан, Луис Рубио, Андреа Пьетра, Жан Пьер Ноер, Норман Бриски, Хуан Минухин, Габриэль Коррадо, Андреа Политти-Описание: Маркос и Ана счастливо прожили вместе 25 лет, но когда их единственный повзрослевший сын отправляется на учебу в другую страну, они чувствуют, что из их отношений пропало что то важное. Действительно ли они все еще любят друг друга или между ними всего лишь привязанность? Чтобы разобраться в своих чувствах, они решают пожить отдельно. Расстаются, что называется, по обоюдному согласию. Поначалу холостая жизнь выглядит более интересной и захватывающей, но со временем у них начинают возникать новые вопросы. А что такое вообще есть любовь, что лежит в основе преданности двух людей? Каждый из них должен принять важное решение, которое навсегда изменит их жизни.- -Качество видео: BDRip | El.amor.menos.pensado.AKA.An.Unexpected.Love.2018.BDREMUX.1080p.seleZen
Формат видео: AVI
Видео: 720x304 (2.37:1), 24.000 fps, XviD build 73 ~1409 kbps avg, 0.27 bit/pixel
Аудио: 48 kHz, AC3 Dolby Digital, 2/0 (L,R) ch, ~192 kbps-[box]Сэмпл[/box]-

MediaInfo

Код:Формат : AVI
Формат/Информация : Audio Video Interleave
Размер файла : 1,46 Гбайт
Продолжительность : 2 ч. 9 м.
Общий поток : 1611 Кбит/сек
Название фильма : Любить нельзя расстаться_2018_BDRip
Программа кодирования : VirtualDubMod 1.5.10.3 | www.virtualdub-fr.org || (build 2550/release) VirtualDubMod build 2550/release
Авторское право : порошков
Видео
Идентификатор : 0
Формат : MPEG-4 Visual
Профиль формата : Advanced Simple@L5
Настройки формата : BVOP1 / Custom Matrix
Параметр BVOP формата : 1
Параметр QPel формата : Нет
Параметр GMC формата : Без точки перехода
Параметр матрицы формата : Выборочная
Идентификатор кодека : XVID
Идентификатор кодека/Подсказка : XviD
Продолжительность : 2 ч. 9 м.
Битрейт : 1410 Кбит/сек
Ширина : 720 пикселей
Высота : 304 пикселя
Соотношение сторон : 2,35:1
Частота кадров : 24,000 кадра/сек
Цветовое пространство : YUV
Субдискретизация насыщенности : 4:2:0
Битовая глубина : 8 бит
Тип развёртки : Прогрессивная
Метод сжатия : С потерями
Бит/(Пиксели*Кадры) : 0.268
Размер потока : 1,28 Гбайт (88%)
Библиотека кодирования : XviD 73
Аудио
Идентификатор : 1
Формат : AC-3
Формат/Информация : Audio Coding 3
Коммерческое название : Dolby Digital
Идентификатор кодека : 2000
Продолжительность : 2 ч. 9 м.
Вид битрейта : Постоянный
Битрейт : 192 Кбит/сек
Каналы : 2 канала
Channel layout : L R
Частота : 48,0 КГц
Частота кадров : 31,250 кадров/сек (1536 SPF)
Битовая глубина : 16 бит
Метод сжатия : С потерями
Размер потока : 178 Мбайт (12%)
Выравнивание : Разделение по промежуткам
Продолжительность промежутка : 42 мс. (1,00 видеокадр)
Время предзагрузки промежутка : 500 мс.
Язык : Русский
ServiceKind/String : Complete Main

Скриншоты


[cybertorrent.net].t2206.torrent 
Торрент: Зарегистрирован [ 2019-04-21 16:40 ] · 360694240E4C15AD4D2F2F74E15B7AD37988DBD1

Скачать .torrent

Скачать

15 KB

Статус: проверено
Скачан: 0 раз
Размер: 1,46 GB
terms.php
Профиль ЛС
Показать сообщения:    

Текущее время: 17-Ноя 18:06

Часовой пояс: UTC ± 0



Вы не можете начинать темы
Вы не можете отвечать на сообщения
Вы не можете редактировать свои сообщения
Вы не можете удалять свои сообщения
Вы не можете голосовать в опросах
Вы не можете прикреплять файлы к сообщениям
Вы можете скачивать файлы