Статистика раздачи
Размер:  4,04 GB   |    Зарегистрирован:  7 месяцев 24 дня   |    Скачан:  0 раз

Полного источника не было: Никогда

 
     
 
 

Гость ®

Пол:
Не указан

Двойник
Год выпуска: 2019
Производство: Dixi-TV
Жанр: драма, фантастика
Продолжительность: ~00:44:00 серия
Субтитры: нет
Режиссёр: Александр Данилов
В ролях: Владимир Верёвочкин, Кристина Александрова, Татьяна Космачёва, Александр Фисенко, Владимир Виноградов, Елена Вовненко, Виталия Корниенко, Анна Куркова, Константин Новиков, Максим Евсеев, Давид Колчин, Софья Цепкова, Пётр Рябов, Евгений Евсюков

Описание: Прошло семь лет с тех пор, как Артём потерял в аварии невесту Лилю, но ни новый брак, ни дочь Соня так и не смогли залечить рану в его душе. Жизнь Артёма становится совсем невыносимой, когда в неё врывается… его собственный двойник из параллельного мира. Тот, другой Артём — жестокий коллектор и преступник, который обвиняется в ограблении банка. Правда, в том мире жива Лиля, но вот беда — она его уже не любит! Против своей воли Артём меняется мирами с Двойником и теперь должен не только разобраться с проблемами чужой жизни, но и вернуться в свою, чтобы спасти близких от жестокого и коварного Двойника. Самый страшный враг человека — это он сам, и главному герою «Двойника» предстоит сразиться именно с таким противником. Но даже если от него отвернутся все близкие, он готов биться за свою любовь до конца!

Реклама: Нет.
Кинопоиск
Все раздачи сериала
Sample
Качество: WEBRip 720p - Files-x
Формат: MKV
Видео кодек: H.264
Аудио кодек: AC3
Видео: MPEG4 AVC Video, H264, 16:9, 1280x720, 25 fps, ~2900 kbps, 0.126 bit/pixel
Аудио: AC3 Dolby Digital, 48.0 kHz, 2/0 (L,R) ch, 192 kbps

MI

General
Unique ID : 252994207300586873285377619030590159504 (0xBE54E97630631DB3AAA26097A6B4FA90)
Complete name : D:\Двойник..2019. WEB-DL 720p. Files-x\01. Двойник..2019. WEB-DL 720p. Files-x.mkv
Format : Matroska
Format version : Version 2
File size : 1 003 MiB
Duration : 44 min 24 s
Overall bit rate : 3 158 kb/s
Encoded date : UTC 2019-04-20 08:10:16
Writing application : mkvmerge v7.8.0 ('River Man') 32bit built on Apr 3 2015 12:11:22
Writing library : libebml v1.3.1 + libmatroska v1.4.2
Video
ID : 1
Format : AVC
Format/Info : Advanced Video Codec
Format profile : High@L3.1
Format settings : CABAC / 1 Ref Frames
Format settings, CABAC : Yes
Format settings, ReFrames : 1 frame
Format settings, GOP : M=1, N=12
Codec ID : V_MPEG4/ISO/AVC
Duration : 44 min 24 s
Bit rate : 2 903 kb/s
Width : 1 280 pixels
Height : 720 pixels
Display aspect ratio : 16:9
Frame rate mode : Constant
Frame rate : 25.000 FPS
Standard : Component
Color space : YUV
Chroma subsampling : 4:2:0
Bit depth : 8 bits
Scan type : Progressive
Bits/(Pixel*Frame) : 0.126
Stream size : 922 MiB (92%)
Default : Yes
Forced : No
Color range : Limited
Audio
ID : 2
Format : AC-3
Format/Info : Audio Coding 3
Codec ID : A_AC3
Duration : 44 min 24 s
Bit rate mode : Constant
Bit rate : 192 kb/s
Channel(s) : 2 channels
Channel positions : Front: L R
Sampling rate : 44.1 kHz
Frame rate : 28.711 FPS (1536 SPF)
Bit depth : 16 bits
Compression mode : Lossy
Stream size : 61.0 MiB (6%)
Service kind : Complete Main
Default : Yes
Forced : No

Скриншоты


[cybertorrent.net].t2203.torrent 
Торрент: Зарегистрирован [ 2019-04-20 16:13 ] · 6EDA21300C5CC611D24AB1BA7C43E3A09F8EEBA1

Скачать .torrent

Скачать

21 KB

Статус: проверено
Скачан: 0 раз
Размер: 4,04 GB
terms.php
Показать сообщения:    

Текущее время: 14-Дек 22:26

Часовой пояс: UTC ± 0



Вы не можете начинать темы
Вы не можете отвечать на сообщения
Вы не можете редактировать свои сообщения
Вы не можете удалять свои сообщения
Вы не можете голосовать в опросах
Вы не можете прикреплять файлы к сообщениям
Вы можете скачивать файлы