Статистика раздачи
Размер:  1,37 GB   |    Зарегистрирован:  7 месяцев 1 день   |    Скачан:  0 раз

Полного источника не было: Никогда

 
     
 
 

солнышко ®

Пол:
Не указан
Стаж:
8 месяцев 10 дней
Сообщений:
565

Никаких детей, малыш! / Ich will (k)ein Kind von Dir
Страна: Германия
Жанр: комедия
Год выпуска: 2016
Продолжительность: 01:28:05
Перевод: Профессиональный (многоголосый закадровый) FOX
Субтитры: нет
Оригинальная аудиодорожка: немецкий
Режиссер: Инго Распер / Ingo Rasper
В ролях: Франциска Вайс
Феликс Кларе
Марен Кройман
Михаэль Виттенборн
Кристина Хеке
Кай Лентродт
Stephanie Lexer
Мэттью Бертон
Мария Валсер
Тереза Хардер
Описание:
Анна и Филипп живут в пригороде Берлина, словно созданном для семейной жизни. На первый взгляд, это счастливая пара, однако один вопрос не дает им покоя - Филип мечтает о ребенке, а Анну совершенно не привлекает перспектива стать матерью. Когда в успешной карьере Анны намечается очередной важный поворот - ей предлагают должность профессора в другом городе - вопрос о ребенке встает во весь рост и его решение не требует отлагательств.
Но чем сильнее Филип старается увлечь Анну преимуществами семейной жизни, тем менее она склонна поддаться на его уговоры. Сможет ли их любовь выдержать этот конфликт?
Сэмпл: http://multi-up.com/1229952
Качество видео: HDTVRip
Формат видео: AVI
Видео: MPEG4, XviD, 720x400 (16:9), 25.000 fps, 1 831 Kbps (0.254 bit/pixel)
Аудио: AC-3, 48.0 KHz, 2 ch, 192 Kbps, CBR - русский
Аудио 2: AC-3, 48.0 KHz, 2 ch, 192 Kbps, CBR - немецкий

MediaInfo

Общее
Полное имя : F:\Никаких детей, малыш!.avi
Формат : AVI
Формат/Информация : Audio Video Interleave
Размер файла : 1,37 Гбайт
Продолжительность : 1 ч. 28 м.
Общий поток : 2230 Кбит/сек
Название фильма : Никаких детей, малыш! / Ich will (k)ein Kind von Dir (2016)
Программа кодирования : VirtualDubMod 1.5.10.2 (build 2540/release)
Библиотека кодирования : VirtualDubMod build 2540/release
Авторское право : miha2154
Видео
Идентификатор : 0
Формат : MPEG-4 Visual
Профиль формата : Advanced Simple@L5
Настройки формата : BVOP1 / Custom Matrix
Параметр BVOP формата : 1
Параметр QPel формата : Нет
Параметр GMC формата : Без точки перехода
Параметр матрицы формата : Выборочная
Идентификатор кодека : XVID
Идентификатор кодека/Подсказка : XviD
Продолжительность : 1 ч. 28 м.
Битрейт : 1831 Кбит/сек
Ширина : 720 пикселей
Высота : 400 пикселей
Соотношение сторон : 16:9
Частота кадров : 25,000 кадров/сек
Цветовое пространство : YUV
Субдискретизация насыщенности : 4:2:0
Битовая глубина : 8 бит
Тип развёртки : Прогрессивная
Метод сжатия : С потерями
Бит/(Пиксели*Кадры) : 0.254
Размер потока : 1,13 Гбайт (82%)
Библиотека кодирования : XviD 65
Аудио #1
Идентификатор : 1
Формат : AC-3
Формат/Информация : Audio Coding 3
Коммерческое название : Dolby Digital
Идентификатор кодека : 2000
Продолжительность : 1 ч. 28 м.
Вид битрейта : Постоянный
Битрейт : 192 Кбит/сек
Каналы : 2 канала
Channel layout : L R
Частота : 48,0 КГц
Частота кадров : 31,250 кадров/сек (1536 SPF)
Битовая глубина : 16 бит
Метод сжатия : С потерями
Размер потока : 121 Мбайт (9%)
Выравнивание : Разделение по промежуткам
Продолжительность промежутка : 40 мс. (1,00 видеокадр)
Время предзагрузки промежутка : 500 мс.
Заголовок : Профессиональный (многоголосый, закадровый)
ServiceKind/String : Complete Main
Аудио #2
Идентификатор : 2
Формат : AC-3
Формат/Информация : Audio Coding 3
Коммерческое название : Dolby Digital
Идентификатор кодека : 2000
Продолжительность : 1 ч. 28 м.
Вид битрейта : Постоянный
Битрейт : 192 Кбит/сек
Каналы : 2 канала
Channel layout : L R
Частота : 48,0 КГц
Частота кадров : 31,250 кадров/сек (1536 SPF)
Битовая глубина : 16 бит
Метод сжатия : С потерями
Размер потока : 121 Мбайт (9%)
Выравнивание : Разделение по промежуткам
Продолжительность промежутка : 40 мс. (1,00 видеокадр)
Время предзагрузки промежутка : 500 мс.
Заголовок : Немецкий
ServiceKind/String : Complete Main

Скриншот c названием фильма

Скриншоты


[cybertorrent.net].t2202.torrent 
Торрент: Зарегистрирован [ 2019-04-20 16:13 ] · 9317F8E0DE425834DDD388F95F2E3E450C27450A

Скачать .torrent

Скачать

14 KB

Статус: проверено
Скачан: 0 раз
Размер: 1,37 GB
terms.php
Профиль [ЛС]
Показать сообщения:    

Текущее время: 22-Ноя 12:57

Часовой пояс: UTC ± 0



Вы не можете начинать темы
Вы не можете отвечать на сообщения
Вы не можете редактировать свои сообщения
Вы не можете удалять свои сообщения
Вы не можете голосовать в опросах
Вы не можете прикреплять файлы к сообщениям
Вы можете скачивать файлы