Статистика раздачи
Размер:  1,45 GB   |    Зарегистрирован:  6 месяцев 24 дня   |    Скачан:  0 раз
Сидов:  18  [  0 KB/s  ]   Личеров:  1  [  0 KB/s  ]  
 
     
 
 

солнышко ®

Пол:
Не указан
Стаж:
8 месяцев 2 дня
Сообщений:
565

Любви больше нет / Rupture Pour Tous / Love is Dead
Страна: Франция, Бельгия
Жанр: комедия
Год выпуска: 2016
Продолжительность: 01:35:05
Перевод: Профессиональный (многоголосый закадровый) 1 канал
Субтитры: нет
Оригинальная аудиодорожка: французский
Режиссер: Эрик Капитен / Éric Capitaine
В ролях: Бенжамен Лаверн
Elisa Ruschke
Айса Майга
Камиль Шаму
Брижит Роюан
Сэм Карманн
Жером Нил
Антуан Гуи
Jérôme De Falloise
Кристель Корнил
Описание: Матиас придумал необычный стартап — фирму «Любви больше нет», которая помогает парам безболезненно расстаться. Но даже тщательно просчитанные комбинации срабатывают не всегда срабатывают, из-за чего Матиас оказывается в неловких ситуациях.
Сэмпл: http://multi-up.com/1229946
Качество видео: WEB-DLRip
Формат видео: AVI
Видео: MPEG4, XviD, 720x304 (2.35:1), 24.000 fps, 1 600 Kbps (0.305 bit/pixel)
Аудио: AC-3, 48.0 KHz, 2 ch, 192 Kbps, CBR - русский
Аудио 2: AC-3, 48.0 KHz, 6 ch, 384 Kbps, CBR - французский

MediaInfo

Общее
Полное имя : F:\Любви больше нет.avi
Формат : AVI
Формат/Информация : Audio Video Interleave
Размер файла : 1,45 Гбайт
Продолжительность : 1 ч. 35 м.
Общий поток : 2190 Кбит/сек
Название фильма : Любви больше нет / Love is Dead / Rupture Pour Tous (2016)
Программа кодирования : VirtualDubMod 1.5.10.2 (build 2540/release)
Библиотека кодирования : VirtualDubMod build 2540/release
Авторское право : miha2154
Видео
Идентификатор : 0
Формат : MPEG-4 Visual
Профиль формата : Advanced Simple@L5
Настройки формата : BVOP1 / Custom Matrix
Параметр BVOP формата : 1
Параметр QPel формата : Нет
Параметр GMC формата : Без точки перехода
Параметр матрицы формата : Выборочная
Идентификатор кодека : XVID
Идентификатор кодека/Подсказка : XviD
Продолжительность : 1 ч. 35 м.
Битрейт : 1600 Кбит/сек
Ширина : 720 пикселей
Высота : 304 пикселя
Соотношение сторон : 2,35:1
Частота кадров : 24,000 кадра/сек
Цветовое пространство : YUV
Субдискретизация насыщенности : 4:2:0
Битовая глубина : 8 бит
Тип развёртки : Прогрессивная
Метод сжатия : С потерями
Бит/(Пиксели*Кадры) : 0.305
Размер потока : 1,06 Гбайт (73%)
Библиотека кодирования : XviD 65
Аудио #1
Идентификатор : 1
Формат : AC-3
Формат/Информация : Audio Coding 3
Коммерческое название : Dolby Digital
Идентификатор кодека : 2000
Продолжительность : 1 ч. 35 м.
Вид битрейта : Постоянный
Битрейт : 192 Кбит/сек
Каналы : 2 канала
Channel layout : L R
Частота : 48,0 КГц
Частота кадров : 31,250 кадров/сек (1536 SPF)
Битовая глубина : 16 бит
Метод сжатия : С потерями
Размер потока : 131 Мбайт (9%)
Выравнивание : Разделение по промежуткам
Продолжительность промежутка : 42 мс. (1,00 видеокадр)
Время предзагрузки промежутка : 500 мс.
Заголовок : Профессиональный (многоголосый, закадровый) 1 канал
ServiceKind/String : Complete Main
Аудио #2
Идентификатор : 2
Формат : AC-3
Формат/Информация : Audio Coding 3
Коммерческое название : Dolby Digital
Идентификатор кодека : 2000
Продолжительность : 1 ч. 35 м.
Вид битрейта : Постоянный
Битрейт : 384 Кбит/сек
Каналы : 6 каналов
Channel layout : L R C LFE Ls Rs
Частота : 48,0 КГц
Частота кадров : 31,250 кадров/сек (1536 SPF)
Битовая глубина : 16 бит
Метод сжатия : С потерями
Размер потока : 261 Мбайт (18%)
Выравнивание : Разделение по промежуткам
Продолжительность промежутка : 42 мс. (1,00 видеокадр)
Время предзагрузки промежутка : 500 мс.
Заголовок : Французский
ServiceKind/String : Complete Main

Скриншот c названием фильма

Скриншоты


[cybertorrent.net].t2201.torrent 
Торрент: Зарегистрирован [ 2019-04-20 16:13 ] · 7D363A297BD1A3289E05B35E9BC0926E2FB73EDC

Скачать .torrent

Скачать

15 KB

Статус: проверено
Скачан: 0 раз
Размер: 1,45 GB
terms.php
Профиль ЛС
Показать сообщения:    

Текущее время: 14-Ноя 22:07

Часовой пояс: UTC ± 0



Вы не можете начинать темы
Вы не можете отвечать на сообщения
Вы не можете редактировать свои сообщения
Вы не можете удалять свои сообщения
Вы не можете голосовать в опросах
Вы не можете прикреплять файлы к сообщениям
Вы можете скачивать файлы