Статистика раздачи
Размер:  3,27 GB   |    Зарегистрирован:  6 месяцев 21 день   |    Скачан:  0 раз

Полного источника не было: Никогда

 
     
 
 

Гость ®

Пол:
Не указан

Московские тайны. Графский парк
Год выпуска: 2019
Производство: Приор Продакшн
Жанр: детектив
Продолжительность: ~00:44:00 серия
Субтитры: нет
Режиссёр: Антон Павлючик
В ролях: Анна Старшенбаум, Евгений Пронин, Александр Робак, Светлана Тимофеева-Летуновская, Екатерина Семенова, Владислав Ветров, Алексей Лонгин

Описание: Ранним утром на территории Останкинского парка обнаружено тело девушки. Кто-то разложил на траве тело, закинув ее руки за голову и привязав веревку к ноге. Девушка оказывается живой, но в коме. Настя Вяземская не успевает разгадать смысл этого извращенного ритуала, как в парке появляется новая жертва – мужчина, чудом оставшийся в живых. Над Останкино сгустились тучи. Кто придет сюда гулять и любоваться Шереметевской усадьбой, если здесь орудует опасный маньяк? Настя начинает догадываться, что преступник вдохновился легендами о жене графа, крепостной актрисе Жемчуговой. Но лишь разоблачив злодея, она понимает, что он был всего лишь марионеткой в чужих руках…

Реклама: Нет.
Кинопоиск
Все раздачи сериала
Sample
Качество: WEBRip 1080p - Getty
Формат: MKV
Видео кодек: H.264
Аудио кодек: AC3
Видео: MPEG4 AVC Video, H264, 16:9, 1920x1080, 25 fps, ~5100 kbps, 0.099 bit/pixel
Аудио: AC3 Dolby Digital, 48.0 kHz, 2/0 (L,R) ch, 192 kbps

MI

General
Unique ID : 198984793565050185250665233999645394406 (0x95B313C607F3F8C5AEE35E8164A845E6)
Complete name : D:\Moskovskie.tayni.Grafskiy.park.2018.WEB-DL.(1080p).Getty\Moskovskie.tayni.Grafskiy.park.e01.2018.WEB-DL.(1080p).Getty.mkv
Format : Matroska
Format version : Version 4 / Version 2
File size : 1.64 GiB
Duration : 44 min 15 s
Overall bit rate : 5 309 kb/s
Movie name : Moskovskie.tayni.Grafskiy.park.e01.2018.WEB-DL.(1080p).Getty
Encoded date : UTC 2019-04-19 22:21:05
Writing application : mkvmerge v7.8.0 ('River Man') 32bit built on Mar 27 2015 16:18:02
Writing library : libebml v1.3.1 + libmatroska v1.4.2
Video
ID : 1
Format : AVC
Format/Info : Advanced Video Codec
Format profile : High@L4
Format settings : CABAC / 4 Ref Frames
Format settings, CABAC : Yes
Format settings, ReFrames : 4 frames
Codec ID : V_MPEG4/ISO/AVC
Duration : 44 min 15 s
Bit rate : 5 115 kb/s
Width : 1 920 pixels
Height : 1 080 pixels
Display aspect ratio : 16:9
Frame rate mode : Constant
Frame rate : 25.000 FPS
Color space : YUV
Chroma subsampling : 4:2:0
Bit depth : 8 bits
Scan type : Progressive
Bits/(Pixel*Frame) : 0.099
Stream size : 1.58 GiB (96%)
Default : Yes
Forced : No
Audio
ID : 2
Format : AC-3
Format/Info : Audio Coding 3
Codec ID : A_AC3
Duration : 44 min 15 s
Bit rate mode : Constant
Bit rate : 192 kb/s
Channel(s) : 2 channels
Channel positions : Front: L R
Sampling rate : 48.0 kHz
Frame rate : 31.250 FPS (1536 SPF)
Bit depth : 16 bits
Compression mode : Lossy
Stream size : 60.8 MiB (4%)
Service kind : Complete Main
Default : Yes
Forced : No

Скриншоты


[cybertorrent.net].t2200.torrent 
Торрент: Зарегистрирован [ 2019-04-20 16:13 ] · 42628B7C4C545D186251B9D2B880F02DE7DE59DF

Скачать .torrent

Скачать

17 KB

Статус: проверено
Скачан: 0 раз
Размер: 3,27 GB
terms.php
Показать сообщения:    

Текущее время: 11-Ноя 20:45

Часовой пояс: UTC ± 0



Вы не можете начинать темы
Вы не можете отвечать на сообщения
Вы не можете редактировать свои сообщения
Вы не можете удалять свои сообщения
Вы не можете голосовать в опросах
Вы не можете прикреплять файлы к сообщениям
Вы можете скачивать файлы