Статистика раздачи
Размер:  1,46 GB   |    Зарегистрирован:  7 месяцев   |    Скачан:  0 раз
Сидов:  128  [  0 KB/s  ]   Личеров:  8  [  0 KB/s  ]  
 
     
 
 

Гость ®

Пол:
Не указан

Пассажир из Сан-Франциско
Страна: Россия, США
Жанр: триллер, мелодрама
Год выпуска: 2017
Продолжительность: 02:02:08
Субтитры: нет-Режиссер:
Анатолий Бальчев-В ролях:
Эльвира Болгова, Олег Драч, Валентин Смирнитский, Рой Вернер, Дэз Кроуфорд, Даниэль Ольбрыхский, Александр Числов, Александр Кузнецов, Сергей Манукян, Василий Мищенко-Описание:
История непростой судьбы бывшего сотрудника советской разведки, отправленного еще в 80-х годах специальными службами в «вынужденную» эмиграцию. В 90-х годах, в связи с государственными переменами в России, герой самостоятельно пытается выбраться из лабиринта сложнейших проблем, не ожидая, что ему могут оказать поддержку. Его пути пересекаются с российскими и американскими спецслужбами по борьбе с наркомафией, дельцами от наркобизнеса, а также с привлекательной сотрудницей таможни Наташей, у которой внезапно вспыхивают к нему чувства. Наташе предстоит догадаться, кем же является загадочный персонаж по имени Фил Маковский…-Качество видео: WEB-DLRip
Формат видео: AVI
Видео: 720x384 (1.88:1), 25 fps, XviD build 73 ~1315 kbps avg, 0.19 bit/pixel
Аудио: 48 kHz, AC3 Dolby Digital, 3/2 (L,C,R,l,r) + LFE ch, ~384 kbps - iTunes-[box]Сэмпл[/box]-

MediaInfo

Код:Формат : AVI
Формат/Информация : Audio Video Interleave
Размер файла : 1,46 Гбайт
Продолжительность : 2 ч. 2 м.
Общий поток : 1710 Кбит/сек
Название фильма : Пассажир из Сан-Франциско_2017_WEB-DLRip
Программа кодирования : VirtualDubMod 1.5.10.3 | www.virtualdub-fr.org || (build 2550/release) VirtualDubMod build 2550/release
Авторское право : порошков
Видео
Идентификатор : 0
Формат : MPEG-4 Visual
Профиль формата : Advanced Simple@L5
Настройки формата : BVOP1
Параметр BVOP формата : 1
Параметр QPel формата : Нет
Параметр GMC формата : Без точки перехода
Параметр матрицы формата : Default (MPEG)
Идентификатор кодека : XVID
Идентификатор кодека/Подсказка : XviD
Продолжительность : 2 ч. 2 м.
Битрейт : 1316 Кбит/сек
Ширина : 720 пикселей
Высота : 384 пикселя
Соотношение сторон : 1,85:1
Частота кадров : 25,000 кадров/сек
Цветовое пространство : YUV
Субдискретизация насыщенности : 4:2:0
Битовая глубина : 8 бит
Тип развёртки : Прогрессивная
Метод сжатия : С потерями
Бит/(Пиксели*Кадры) : 0.190
Размер потока : 1,12 Гбайт (77%)
Библиотека кодирования : XviD 73
Аудио
Идентификатор : 1
Формат : AC-3
Формат/Информация : Audio Coding 3
Коммерческое название : Dolby Digital
Идентификатор кодека : 2000
Продолжительность : 2 ч. 2 м.
Вид битрейта : Постоянный
Битрейт : 384 Кбит/сек
Каналы : 6 каналов
Channel layout : L R C LFE Ls Rs
Частота : 48,0 КГц
Частота кадров : 31,250 кадров/сек (1536 SPF)
Битовая глубина : 16 бит
Метод сжатия : С потерями
Размер потока : 335 Мбайт (22%)
Выравнивание : Разделение по промежуткам
Продолжительность промежутка : 40 мс. (1,00 видеокадр)
Время предзагрузки промежутка : 500 мс.
Язык : Русский
ServiceKind/String : Complete Main

Скриншоты


[cybertorrent.net].t2188.torrent 
Торрент: Зарегистрирован [ 2019-04-20 16:13 ] · B5BCF8B6387E9FDD30C4F1A974EE81FB34CABE7B

Скачать .torrent

Скачать

15 KB

Статус: проверено
Скачан: 0 раз
Размер: 1,46 GB
terms.php
Показать сообщения:    

Текущее время: 21-Ноя 09:21

Часовой пояс: UTC ± 0



Вы не можете начинать темы
Вы не можете отвечать на сообщения
Вы не можете редактировать свои сообщения
Вы не можете удалять свои сообщения
Вы не можете голосовать в опросах
Вы не можете прикреплять файлы к сообщениям
Вы можете скачивать файлы