Статистика раздачи
Нет
 
     
 
 

dolphin ®

Пол:
Не указан
Стаж:
1 год 2 месяца
Сообщений:
35

«Когда пришли в светлое будущее, а там... уже кто-то живет»
Информация
Название: Семейка Крудс: Новоселье
Оригинальное название: The Croods: A New Age
Год выхода: 2020
Жанр: Мультфильм, фэнтези, комедия, приключения, семейный
Режиссер: Джоэль Кроуфорд
Роли озвучивают: Николас Кейдж, Эмма Стоун, Райан Рейнольдс, Кэтрин Кинер, Клорис Личмен, Кларк Дьюк, Лесли Манн, Питер Динклэйдж, Келли Мари Трэн, Кайли Кроуфорд
Описание:
Такие харизматичные герои как члены клана Крудс просто не в силах усидеть на месте. Они смело идут навстречу самым головокружительным приключениям и готовы ответить непредсказуемостью и находчивостью на любой вызов судьбы.


Страна: США
Студия: DreamWorks Animation
Продолжительность: 01:35:14
Перевод: Профессиональный (многоголосый, закадровый) | HDRezka Studio
Файл
Качество: WEB-DL 1080p
Формат: MKV
Кодек: MPEG-4 AVC
Видео: 1920x816 (2.35:1), 23.976 fps, MPEG-4 AVC ~ 7802 Kbps avg, 0.208 bit/pixel
Аудио: AC3, 48 kHz, 6 ch, ~448.00 kbps avg | русский | HDRezka Studio
Аудио: E-AC3, 48 kHz, 6 ch, ~640.00 kbps avg | английский |
Субтитры: Русские (форсированные), английские (SDH)

Инфо-файл

Общее
Уникальный идентификатор : 276726199577196431845327280808117190964 (0xD02F8704BFD8BB82E7DBE7347614C134)
Полное имя : The.Croods.A.New.Age.2020.1080p.WEBDL.MegaPeer.mkv
Формат : Matroska
Версия формата : Version 4
Размер файла : 5,92 Гбайт
Продолжительность : 1 ч. 35 м.
Общий поток : 8 893 Кбит/сек
Название фильма : Семейка Крудс: Новоселье / The Croods: A New Age (2020) от MegaPeer
Дата кодирования : UTC 2021-01-03 19:12:17
Программа кодирования : mkvmerge v47.0.0 ('Black Flag') 64-bit
Библиотека кодирования : libebml v1.3.10 + libmatroska v1.5.2
Обложка : Yes
Attachments : cover.jpg
Видео
Идентификатор : 1
Формат : AVC
Формат/Информация : Advanced Video Codec
Профиль формата : High@L4
Настройки формата : CABAC / 4 Ref Frames
Параметр CABAC формата : Да
Параметр RefFrames формата : 4 кадра
Идентификатор кодека : V_MPEG4/ISO/AVC
Продолжительность : 1 ч. 35 м.
Вид битрейта : Постоянный
Битрейт : 7 802 Кбит/сек
Номинальный битрейт : 10 000 Кбит/сек
Ширина : 1 920 пикселей
Высота : 816 пикселей
Соотношение сторон : 2,35:1
Режим частоты кадров : Постоянный
Частота кадров : 23,976 (24000/1001) кадра/сек
Цветовое пространство : YUV
Субдискретизация насыщенности : 4:2:0
Битовая глубина : 8 бит
Тип развёртки : Прогрессивная
Бит/(Пиксели*Кадры) : 0.208
Размер потока : 5,19 Гбайт (88%)
Язык : English
Default : Да
Forced : Нет
Цветовой диапазон : Limited
Основные цвета : BT.709
Характеристики трансфера : BT.709
Коэффициенты матрицы : BT.709
Аудио #1
Идентификатор : 2
Формат : AC-3
Формат/Информация : Audio Coding 3
Коммерческое название : Dolby Digital
Идентификатор кодека : A_AC3
Продолжительность : 1 ч. 35 м.
Вид битрейта : Постоянный
Битрейт : 448 Кбит/сек
Каналы : 6 каналов
Channel layout : L R C LFE Ls Rs
Частота : 48,0 КГц
Частота кадров : 31,250 кадров/сек (1536 SPF)
Метод сжатия : С потерями
Размер потока : 305 Мбайт (5%)
Заголовок : MVO | HDRezka Studio
Язык : Russian
Service kind : Complete Main
Default : Да
Forced : Да
Аудио #2
Идентификатор : 3
Формат : E-AC-3
Формат/Информация : Enhanced AC-3
Коммерческое название : Dolby Digital Plus
Идентификатор кодека : A_EAC3
Продолжительность : 1 ч. 35 м.
Вид битрейта : Постоянный
Битрейт : 640 Кбит/сек
Каналы : 6 каналов
Channel layout : L R C LFE Ls Rs
Частота : 48,0 КГц
Частота кадров : 31,250 кадров/сек (1536 SPF)
Метод сжатия : С потерями
Размер потока : 436 Мбайт (7%)
Язык : English
Service kind : Complete Main
Default : Нет
Forced : Нет
Текст #1
Идентификатор : 4
Формат : UTF-8
Идентификатор кодека : S_TEXT/UTF8
Идентификатор кодека/Информация : UTF-8 Plain Text
Продолжительность : 14 м. 34 с.
Битрейт : 4 бит/сек
Count of elements : 15
Размер потока : 500 байт (0%)
Заголовок : Forced
Язык : Russian
Default : Да
Forced : Да
Текст #2
Идентификатор : 5
Формат : UTF-8
Идентификатор кодека : S_TEXT/UTF8
Идентификатор кодека/Информация : UTF-8 Plain Text
Продолжительность : 1 ч. 35 м.
Битрейт : 87 бит/сек
Count of elements : 2402
Размер потока : 61,2 Кбайт (0%)
Заголовок : English
Язык : English
Default : Нет
Forced : Нет

Скриншоты

Профиль [ЛС]
Показать сообщения:    

Текущее время: 23-Апр 17:48

Часовой пояс: UTC ± 0



Вы не можете начинать темы
Вы не можете отвечать на сообщения
Вы не можете редактировать свои сообщения
Вы не можете удалять свои сообщения
Вы не можете голосовать в опросах
Вы не можете прикреплять файлы к сообщениям
Вы не можете скачивать файлы