Статистика раздачи
Нет
 
     
 
 

dolphin ®

Пол:
Не указан
Стаж:
1 год 2 месяца
Сообщений:
35

ДракулаОригинальное название: Dracula
Год выхода: 2020
Жанр: ужасы, драма
Режиссер: Джонни Кэмпбелл, Пол МакГиган, Дэймон Томас
В ролях: Клас Банг, Долли Уэллс, Джон Хеффернан, Джоэнна Скэнлэн, Морфидд Кларк, Джонатан Арис, Юссеф Керкур, Нэйтан Стюарт-Джарретт, Катерина Шелл, Линдси Маршал
О фильме:
«Дракула» — это трехсерийная фэнтези-драма, основанная на одноименном романе Брэма Стокера. Сценарий для BBC One и Netflix написали Марк Гейтисс и Стивен Моффат, известные по работе над сериалами «Шерлок» и «Доктор Кто». По словам создателей проекта, легенда о графе Дракуле получила новое прочтение, благодаря которому зритель узнает истинные причины преступлений вампира и поближе познакомится с личностью героя. На этот раз вампир оказывается в центре сюжета, а не в качестве однобокого злодея, которому суждено быть побежденным. Кровожадного, но харизматичного монстра играет датский актер Клас Банг, обладатель премии Европейской киноакадемии за главную роль в фильме «Квадрат» Рубена Эстлунда. По одной полуторачасовой серии сняли режиссеры Джонни Кэмпбелл («Во плоти»), Пол МакГиган («Шерлок») и Дэймон Томас («Убивая Еву»).
Сюжет
История берет начало в 1897 году в Трансильвании, куда молодой английский юрист Джонатан Харкер (Джон Хеффернан) приезжает на встречу с новым клиентом. Мужчина и не подозревает, что его ожидает в мрачных стенах средневекового замка графа Дракулы (Клас Банг): интересы хозяина оказываются шире, чем вопросы недвижимости, и вот гость уже пускается в бега, чтобы спасти свою жизнь и защитить близких. Погоня за юристом приводит Дракулу в викторианский Лондон, разительно отличающийся от родной Румынии. Почуяв свежую кровь, вампир решает заселить британский остров своими последователями. В то время как потомки доктора Ван Хельсинга начинают охоту на монстра, внимание героя привлекает ничем не примечательная девушка...

Страна: Великобритания
Студия: Hartswood Films, British Broadcasting Corporation (BBC), Netflix
Продолжительность: ~01:30:00
Перевод: Профессиональный (дублированный) Невафильм по заказу NETFLIX
Файл
Формат: MKV
Качество: WEB-DL 1080p | NETFLIX
Видео: 1920x1080 at 25.000 fps, MPEG-4 AVC, ~3500 kbps avg
Аудио#1: Russian: 48 kHz, E-AC3, 3/2 (L,C,R,l,r) + LFE ch, ~640.00 kbps avg
Аудио#2: Russian: 48 kHz, АС3, 3/2 (L,C,R,l,r) + LFE ch, ~640.00 kbps avg
Аудио#3: English: 48 kHz, E-АС3 Atmos, 3/2 (L,C,R,l,r) + LFE ch, ~768.00 kbps avg
Субтитры: русские (Forced, Full), английские, немецкие, французские, итальянские, европейские испанские, турецкие, финские, польские
Реклама отсутствует

Список серий

01. Правила зверя / The Rules of the Beast
02. Кровавое судно / Blood Vessel
03. Тёмный компас / The Dark Compass

MediaInfo

General
Complete name : Dracula.S01E01.WEB-DL.1080p.-Kyle.mkv
Format : Matroska
Format version : Version 4
File size : 3.29 GiB
Duration : 1 h 29 min
Overall bit rate mode : Variable
Overall bit rate : 5 265 kb/s
Encoded date : UTC 2020-01-04 08:39:20
Writing application : mkvmerge v41.0.0 ('Smarra') 64-bit
Writing library : libebml v1.3.9 + libmatroska v1.5.2
Video
ID : 1
Format : AVC
Format/Info : Advanced Video Codec
Format profile : High@L4
Format settings : CABAC / 4 Ref Frames
Format settings, CABAC : Yes
Format settings, Reference : 4 frames
Codec ID : V_MPEG4/ISO/AVC
Duration : 1 h 29 min
Bit rate mode : Variable
Bit rate : 3 213 kb/s
Maximum bit rate : 20.0 Mb/s
Width : 1 920 pixels
Height : 1 080 pixels
Display aspect ratio : 16:9
Frame rate mode : Constant
Frame rate : 25.000 FPS
Color space : YUV
Chroma subsampling : 4:2:0
Bit depth : 8 bits
Scan type : Progressive
Bits/(Pixel*Frame) : 0.062
Stream size : 2.01 GiB (61%)
Title : English
Writing library : x264 core 148 r2715 7e75228
Encoding settings : cabac=1 / ref=4 / deblock=1:0:0 / analyse=0x3:0x111 / me=umh / subme=10 / psy=1 / psy_rd=1.00:0.00 / mixed_ref=1 / me_range=120 / chroma_me=1 / trellis=2 / 8x8dct=1 / cqm=0 / deadzone=21,11 / fast_pskip=1 / chroma_qp_offset=-2 / threads=8 / lookahead_threads=2 / sliced_threads=0 / nr=0 / decimate=1 / interlaced=0 / bluray_compat=0 / stitchable=1 / constrained_intra=0 / bframes=16 / b_pyramid=2 / b_adapt=2 / b_bias=0 / direct=3 / weightb=1 / open_gop=0 / weightp=2 / keyint=250 / keyint_min=126 / scenecut=0 / intra_refresh=0 / rc_lookahead=250 / rc=crf / mbtree=1 / crf=16.0 / qcomp=0.50 / qpmin=6 / qpmax=51 / qpstep=4 / vbv_maxrate=20000 / vbv_bufsize=25000 / crf_max=0.0 / nal_hrd=vbr / filler=0 / ip_ratio=1.40 / aq=1:0.80
Language : English
Default : Yes
Forced : No
Audio #1
ID : 2
Format : E-AC-3
Format/Info : Enhanced AC-3
Commercial name : Dolby Digital Plus
Codec ID : A_EAC3
Duration : 1 h 29 min
Bit rate mode : Constant
Bit rate : 640 kb/s
Channel(s) : 6 channels
Channel layout : L R C LFE Ls Rs
Sampling rate : 48.0 kHz
Frame rate : 31.250 FPS (1536 SPF)
Compression mode : Lossy
Stream size : 410 MiB (12%)
Title : Russian, E-AC3
Language : Russian
Service kind : Complete Main
Default : Yes
Forced : No
Audio #2
ID : 3
Format : AC-3
Format/Info : Audio Coding 3
Commercial name : Dolby Digital
Codec ID : A_AC3
Duration : 1 h 29 min
Bit rate mode : Constant
Bit rate : 640 kb/s
Channel(s) : 6 channels
Channel layout : L R C LFE Ls Rs
Sampling rate : 48.0 kHz
Frame rate : 31.250 FPS (1536 SPF)
Compression mode : Lossy
Stream size : 410 MiB (12%)
Title : Russian, AC3
Language : Russian
Service kind : Complete Main
Default : No
Forced : No
Audio #3
ID : 4
Format : E-AC-3 JOC
Format/Info : Enhanced AC-3 with Joint Object Coding
Commercial name : Dolby Digital Plus with Dolby Atmos
Codec ID : A_EAC3
Duration : 1 h 29 min
Bit rate mode : Constant
Bit rate : 768 kb/s
Channel(s) : 6 channels
Channel layout : L R C LFE Ls Rs
Sampling rate : 48.0 kHz
Frame rate : 31.250 FPS (1536 SPF)
Compression mode : Lossy
Stream size : 492 MiB (15%)
Title : English
Language : English
Service kind : Complete Main
Default : No
Forced : No
Complexity index : 16
Number of dynamic objects : 15
Bed channel count : 1 channel
Bed channel configuration : LFE
Text #1
ID : 5
Format : UTF-8
Codec ID : S_TEXT/UTF8
Codec ID/Info : UTF-8 Plain Text
Duration : 1 h 28 min
Bit rate : 0 b/s
Count of elements : 10
Stream size : 395 Bytes (0%)
Title : Forced
Language : Russian
Default : Yes
Forced : No
Text #2
ID : 6
Format : UTF-8
Codec ID : S_TEXT/UTF8
Codec ID/Info : UTF-8 Plain Text
Duration : 1 h 28 min
Bit rate : 85 b/s
Count of elements : 1072
Stream size : 55.4 KiB (0%)
Title : Russian
Language : Russian
Default : No
Forced : No
Text #3
ID : 7
Format : UTF-8
Codec ID : S_TEXT/UTF8
Codec ID/Info : UTF-8 Plain Text
Duration : 1 h 28 min
Bit rate : 60 b/s
Count of elements : 1395
Stream size : 39.1 KiB (0%)
Title : English
Language : English
Default : No
Forced : No
Text #4
ID : 8
Format : UTF-8
Codec ID : S_TEXT/UTF8
Codec ID/Info : UTF-8 Plain Text
Duration : 1 h 28 min
Bit rate : 52 b/s
Count of elements : 1051
Stream size : 34.0 KiB (0%)
Title : German
Language : German
Default : No
Forced : No
Text #5
ID : 9
Format : UTF-8
Codec ID : S_TEXT/UTF8
Codec ID/Info : UTF-8 Plain Text
Duration : 1 h 28 min
Bit rate : 54 b/s
Count of elements : 1104
Stream size : 35.3 KiB (0%)
Title : French
Language : French
Default : No
Forced : No
Text #6
ID : 10
Format : UTF-8
Codec ID : S_TEXT/UTF8
Codec ID/Info : UTF-8 Plain Text
Duration : 1 h 28 min
Bit rate : 48 b/s
Count of elements : 1085
Stream size : 31.5 KiB (0%)
Title : Italian
Language : Italian
Default : No
Forced : No
Text #7
ID : 11
Format : UTF-8
Codec ID : S_TEXT/UTF8
Codec ID/Info : UTF-8 Plain Text
Duration : 1 h 28 min
Bit rate : 49 b/s
Count of elements : 1044
Stream size : 32.0 KiB (0%)
Title : European Spanish
Language : Spanish
Default : No
Forced : No
Text #8
ID : 12
Format : UTF-8
Codec ID : S_TEXT/UTF8
Codec ID/Info : UTF-8 Plain Text
Duration : 1 h 28 min
Bit rate : 50 b/s
Count of elements : 1012
Stream size : 32.8 KiB (0%)
Title : Turkish
Language : Turkish
Default : No
Forced : No
Text #9
ID : 13
Format : UTF-8
Codec ID : S_TEXT/UTF8
Codec ID/Info : UTF-8 Plain Text
Duration : 1 h 28 min
Bit rate : 45 b/s
Count of elements : 1039
Stream size : 29.2 KiB (0%)
Title : Finnish
Language : Finnish
Default : No
Forced : No
Text #10
ID : 14
Format : UTF-8
Codec ID : S_TEXT/UTF8
Codec ID/Info : UTF-8 Plain Text
Duration : 1 h 28 min
Bit rate : 50 b/s
Count of elements : 1062
Stream size : 32.5 KiB (0%)
Title : Polish
Language : Polish
Default : No
Forced : No

Скриншоты



Профиль [ЛС]
Показать сообщения:    

Текущее время: 23-Апр 18:40

Часовой пояс: UTC ± 0



Вы не можете начинать темы
Вы не можете отвечать на сообщения
Вы не можете редактировать свои сообщения
Вы не можете удалять свои сообщения
Вы не можете голосовать в опросах
Вы не можете прикреплять файлы к сообщениям
Вы не можете скачивать файлы