MAGNAT ®

Пол:
Мужской
Стаж:
1 год 9 месяцев
Сообщений:
9230

В Д О В А
Жанр: Ужасы, триллер
Год выпуска: 2020
Продолжительность: 01:22:27
Субтитры: нет
Режиссёр: Иван Минин
В ролях:
Виктория Потемина, Анастасия Грибова, Маргарита Бычкова, Илья Агапов, Алексей Анискин, Константин Нестерко, Олег Чугунов
Описание:
Ежегодно в лесах на севере Ленинградской области пропадает более 300 человек. Известны случаи, когда тела пропавших находят посреди леса – полностью обнаженными, без каких-либо следов насильственной смерти. Во время учений команда волонтеров-спасателей получает сообщение о потерявшемся мальчике. Углубляясь в глухой лес, поисковый отряд сталкивается со зловещей сущностью: согласно преданиям, здесь обитает неупокоенный дух давно погибшей ведьмы, которую местные называют Хромой Вдовой. Они верят, что встреча со Вдовой несет смерть.
Качество видео: WEB-DLRip
Скачать: Сэмпл
Видео: 720x304 (2,35:1), 25,000 fps, XviD build 67 ~2149 kbps avg, 0.393 bit/pixel
Аудио: 48 kHz, AC3 Dolby Digital, 3/2 (L,C,R,l,r) + LFE ch, ~384 kbps

MediaInfo

Общее
Полное имя : C:\Vdova.2020.WEB-DLRip.avi
Формат : AVI
Формат/Информация : Audio Video Interleave
Размер файла : 1,46 Гбайт
Продолжительность : 1 ч. 22 м.
Общий поток : 2 542 Кбит/сек
Название фильма : Вдова (2020) WEB-DLRip
Режиссёр : Иван Минин
Жанр : Ужасы, триллер
Программа кодирования : VirtualDubMod 1.5.10.2 (build 2542/release)
Формат оригинала/Имя : Художественный фильм
Авторское право : Россия, QS FILMS
Примечание : Rip by vitolinform
Видео
Идентификатор : 0
Формат : MPEG-4 Visual
Профиль формата : Advanced Simple@L5
Настройки формата : BVOP1 / Custom Matrix
Параметр BVOP формата : 1
Параметр QPel формата : Нет
Параметр GMC формата : Без точки перехода
Параметр матрицы формата : Выборочная
Идентификатор кодека : XVID
Идентификатор кодека/Подсказка : XviD
Продолжительность : 1 ч. 22 м.
Битрейт : 2 149 Кбит/сек
Ширина : 720 пикселей
Высота : 304 пикселя
Соотношение сторон : 2,35:1
Частота кадров : 25,000 кадров/сек
Цветовое пространство : YUV
Субдискретизация насыщенности : 4:2:0
Битовая глубина : 8 бит
Тип развёртки : Чересстрочная
Порядок развёртки : Нижнее поле первое
Метод сжатия : С потерями
Бит/(Пиксели*Кадры) : 0.393
Размер потока : 1,24 Гбайт (85%)
Библиотека кодирования : XviD 67
Аудио
Идентификатор : 1
Формат : AC-3
Формат/Информация : Audio Coding 3
Коммерческое название : Dolby Digital
Идентификатор кодека : 2000
Продолжительность : 1 ч. 22 м.
Вид битрейта : Постоянный
Битрейт : 384 Кбит/сек
Каналы : 6 каналов
Channel layout : L R C LFE Ls Rs
Частота : 48,0 КГц
Частота кадров : 31,250 кадров/сек (1536 SPF)
Метод сжатия : С потерями
Размер потока : 226 Мбайт (15%)
Выравнивание : Разделение по промежуткам
Продолжительность промежутка : 40 мс. (1,00 видеокадр)
Время предзагрузки промежутка : 500 мс.
Заголовок : Russian
Service kind : Complete Main

Скриншот c названием фильма

Скриншоты

Профиль [ЛС]
Показать сообщения:    

Текущее время: 24-Янв 19:30

Часовой пояс: UTC ± 0



Вы не можете начинать темы
Вы не можете отвечать на сообщения
Вы не можете редактировать свои сообщения
Вы не можете удалять свои сообщения
Вы не можете голосовать в опросах
Вы не можете прикреплять файлы к сообщениям
Вы не можете скачивать файлы