MAGNAT ®

Пол:
Мужской
Стаж:
1 год 9 месяцев
Сообщений:
9230

Самый Новый год!- Жанр: комедия, фантастика
Год выпуска: 2020
Страна: Россия
Продолжительность: 01:19:36
Субтитры: нет
Режиссёр: Антонина Руже-В ролях: Роман Курцын, Алина Алексеева, Елизавета Кононова, Ксения Радченко, Иван Макаревич, Владимир Сычев, Наталья Щукина, Антон Шурцов, Артем Костюнёв, Юлия Серина
Описание: У Саши три проблемы: девушка, которая хочет свадьбу, на которую он никак не может решиться, ведь он всего-навсего ветеринарный фельдшер и чистит уши собакам, родители, ведь маме не нравится Оля, а папе не нравится его работа, потому что Саша чистит уши собакам, и третья - он не нравится Олиной маме, потому что... да, потому что он чистит уши собакам.-Качество видео: WEB-DLRip-AVC
Формат видео: MKV
Видео: 1056x440 (2.40:1), 24.000 fps, x264, ~2238 Kbps avg, 0.20 bits/pixel
Аудио: 48 kHz, AC3 Dolby Digital, 3/2 (L,C,R,l,r) + LFE ch, ~384 kbps avg

MediaInfo

Format : Matroska
Format version : Version 4
File size : 1.46 GiB
Duration : 1 h 19 min
Overall bit rate : 2 623 kb/s
Encoded date : UTC 2021-01-03 18:32:55
Writing application : mkvmerge v51.0.0 ('I Wish') 32-bit
Writing library : libebml v1.4.0 + libmatroska v1.6.2
Video
ID : 1
Format : AVC
Format/Info : Advanced Video Codec
Format profile : High@L4.1
Format settings : CABAC / 9 Ref Frames
Format settings, CABAC : Yes
Format settings, Reference : 9 frames
Codec ID : V_MPEG4/ISO/AVC
Duration : 1 h 19 min
Bit rate : 2 238 kb/s
Width : 1 056 pixels
Height : 440 pixels
Display aspect ratio : 2.40:1
Frame rate mode : Constant
Frame rate : 24.000 FPS
Color space : YUV
Chroma subsampling : 4:2:0
Bit depth : 8 bits
Scan type : Progressive
Bits/(Pixel*Frame) : 0.201
Stream size : 1.24 GiB (85%)
Writing library : x264 core 161 r3018 db0d417
Encoding settings : cabac=1 / ref=9 / deblock=1:-3:-2 / analyse=0x3:0x113 / me=umh / subme=10 / psy=1 / psy_rd=1.00:0.08 / mixed_ref=1 / me_range=32 / chroma_me=1 / trellis=2 / 8x8dct=1 / cqm=0 / deadzone=21,11 / fast_pskip=0 / chroma_qp_offset=-3 / threads=6 / lookahead_threads=1 / sliced_threads=0 / nr=0 / decimate=1 / interlaced=0 / bluray_compat=0 / constrained_intra=0 / bframes=16 / b_pyramid=2 / b_adapt=2 / b_bias=0 / direct=3 / weightb=1 / open_gop=0 / weightp=2 / keyint=240 / keyint_min=23 / scenecut=40 / intra_refresh=0 / rc=2pass / mbtree=0 / bitrate=2238 / ratetol=1.0 / qcomp=0.60 / qpmin=0 / qpmax=69 / qpstep=4 / cplxblur=20.0 / qblur=0.5 / ip_ratio=1.40 / pb_ratio=1.30 / aq=1:1.00
Default : Yes
Forced : No
Audio
ID : 2
Format : AC-3
Format/Info : Audio Coding 3
Commercial name : Dolby Digital
Codec ID : A_AC3
Duration : 1 h 19 min
Bit rate mode : Constant
Bit rate : 384 kb/s
Channel(s) : 6 channels
Channel layout : L R C LFE Ls Rs
Sampling rate : 48.0 kHz
Frame rate : 31.250 FPS (1536 SPF)
Compression mode : Lossy
Stream size : 219 MiB (15%)
Service kind : Complete Main
Default : Yes
Forced : No

Скриншот c названием фильма

Скриншоты

Профиль [ЛС]
Показать сообщения:    

Текущее время: 24-Янв 19:02

Часовой пояс: UTC ± 0



Вы не можете начинать темы
Вы не можете отвечать на сообщения
Вы не можете редактировать свои сообщения
Вы не можете удалять свои сообщения
Вы не можете голосовать в опросах
Вы не можете прикреплять файлы к сообщениям
Вы не можете скачивать файлы