MAGNAT ®

Пол:
Мужской
Стаж:
1 год 9 месяцев
Сообщений:
9230

Чего хочет Слава?
Страна: Россия
Жанр: драма, комедия, мелодрама
Год выпуска: 2020
Продолжительность: 01:42:34
Субтитры: нет-Режиссер:
Оксана Бычкова-В ролях:
Александр Алябьев, Александр Паль, Александра Ревенко, Артем Сучков, Ия Сухиташвили, Мадлен Джабраилова, Надежда Лумпова, Руслан Братов-Описание:
Ироничная комедия от создателей сериалов «Мир! Дружба! Жвачка!», «Физрук» и «Сладкая жизнь». Слава —девушка, привыкшая жить эмоциями, ее поступки импульсивны и непредсказуемы. В канун Нового года Слава загадывает желание, чтобы ее муж Валя стал крутым стартапером в Силиконовой долине, а она «всего-навсего» – супервумен, которая спасет Мир. Но время идет, а чудо не происходит, и Слава, собрав вещи, уходит от мужа. Однако загаданное желание становится роковым: у Вали все начинает получаться, а Слава продолжает жить ожиданием, что мир будет вращаться вокруг нее... Все меняет встреча с Валей, теперь успешным стартапером, которая заставляет Славу повзрослеть и понять: чтобы быть супердевчонкой, необязательно быть в центре Земли. Ей можно стать и в съемной квартире, если прислушаться и понять, чего на самом деле хочет Слава.-Качество видео: WEBRip
Формат видео: AVI
Видео: 720x400 (1.80:1), 25 fps, XviD build 73 ~1833 kbps avg, 0.25 bit/pixel
Аудио: 48 kHz, AC3 Dolby Digital, 2/0 (L,R) ch, ~192 kbps

MediaInfo

Код:
Формат : AVI
Формат/Информация : Audio Video Interleave
Размер файла : 1,46 Гбайт
Продолжительность : 1 ч. 42 м.
Общий поток : 2 035 Кбит/сек
Название фильма : Чего хочет Слава_2020_WEBRip
Программа кодирования : VirtualDubMod 1.5.10.3 | www.virtualdub-fr.org || (build 2550/release)
Авторское право : порошков
Видео
Идентификатор : 0
Формат : MPEG-4 Visual
Профиль формата : Advanced Simple@L5
Настройки формата : BVOP1 / Custom Matrix
Параметр BVOP формата : 1
Параметр QPel формата : Нет
Параметр GMC формата : Без точки перехода
Параметр матрицы формата : Выборочная
Идентификатор кодека : XVID
Идентификатор кодека/Подсказка : XviD
Продолжительность : 1 ч. 42 м.
Битрейт : 1 834 Кбит/сек
Ширина : 720 пикселей
Высота : 400 пикселей
Соотношение сторон : 16:9
Частота кадров : 25,000 кадров/сек
Цветовое пространство : YUV
Субдискретизация насыщенности : 4:2:0
Битовая глубина : 8 бит
Тип развёртки : Прогрессивная
Метод сжатия : С потерями
Бит/(Пиксели*Кадры) : 0.255
Размер потока : 1,31 Гбайт (90%)
Библиотека кодирования : XviD 73
Аудио
Идентификатор : 1
Формат : AC-3
Формат/Информация : Audio Coding 3
Коммерческое название : Dolby Digital
Идентификатор кодека : 2000
Продолжительность : 1 ч. 42 м.
Вид битрейта : Постоянный
Битрейт : 192 Кбит/сек
Каналы : 2 канала
Channel layout : L R
Частота : 48,0 КГц
Частота кадров : 31,250 кадров/сек (1536 SPF)
Метод сжатия : С потерями
Размер потока : 141 Мбайт (9%)
Выравнивание : Разделение по промежуткам
Продолжительность промежутка : 40 мс. (1,00 видеокадр)
Время предзагрузки промежутка : 500 мс.
Service kind : Complete Main

Скриншоты


Профиль [ЛС]
Показать сообщения:    

Текущее время: 19-Янв 11:12

Часовой пояс: UTC ± 0



Вы не можете начинать темы
Вы не можете отвечать на сообщения
Вы не можете редактировать свои сообщения
Вы не можете удалять свои сообщения
Вы не можете голосовать в опросах
Вы не можете прикреплять файлы к сообщениям
Вы не можете скачивать файлы