MAGNAT ®

Пол:
Мужской
Стаж:
1 год 9 месяцев
Сообщений:
9230

Клир / Kler- Страна: Польша
Жанр: драма
Год выпуска: 2018
Продолжительность: 02:14:00-Перевод: Профессиональный (многоголосый закадровый)
СВ Студия
Оригинальная аудиодорожка: польский-Режиссер: Войчех Смажовски / Wojciech Smarzowski
В ролях: Аркадиуш Якубик, Роберт Венцкевич, Яцек Брачак, Иоанна Кулиг, Януш Гайос, Адриан Заремба, Магда Целувна, Михал Гадомски-Описание: Три священника католической церкви. Три судьбы, три дороги. Как переплетаются их судьбы с другими людьми, какое они оказывают влияние и каков их жизненный путь знают только небеса.-Тип релиза: BDRip 1080p
Контейнер: MKV
Видео: MPEG-4 AVC, 1920x804, 2.40:1, 24 fps, 16.4 Mb/s
Аудио 1: Русский, DTS, 48 kHz, 6 ch, 1509 kbps
Аудио 2: Польский, DTS, 48 kHz, 6 ch, 1509 kbps
Субтитры: русские (форсированные), русские, польские, английские, французские
Формат субтитров: softsub (SRT)-Реклама: Отсутствует-Доп. информация: Релиз подготовлен в рамках проекта Рутрекера по переводу фильмов.
Спонсоры перевода: viryzhkov, snikersni66, XTC_Love, krepelka, blacksun, SuMaMi, инкогнито, NavallOfficer, Nikolasha1956, NIKITA_1976, Руслан250381, Anatoly++, Zorka123456, DERR_84, digitus (teаmhd), Cineman, vodorod2000.-

MediaInfo

General
Unique ID : 177132958414276617251038547966126075527 (0x8542911EB4E34F5791A277BAB66E2E87)
Complete name : Kler.2018.1080p.BDRip.DTS.x264.mkv
Format : Matroska
Format version : Version 4
File size : 18.3 GiB
Duration : 2 h 14 min
Overall bit rate : 19.4 Mb/s
Movie name : Kler 2018 1080p BluRay DTS x264-DON
Encoded date : UTC 2020-12-25 12:52:30
Writing application : mkvmerge v7.5.0 ('Glass Culture') 32bit built on Jan 4 2015 16:37:25
Writing library : libebml v1.3.1 + libmatroska v1.4.2
Video
ID : 1
Format : AVC
Format/Info : Advanced Video Codec
Format profile : High@L4.1
Format settings : CABAC / 5 Ref Frames
Format settings, CABAC : Yes
Format settings, Reference frames : 5 frames
Codec ID : V_MPEG4/ISO/AVC
Duration : 2 h 14 min
Bit rate : 16.4 Mb/s
Width : 1 920 pixels
Height : 804 pixels
Display aspect ratio : 2.40:1
Frame rate mode : Constant
Frame rate : 24.000 FPS
Color space : YUV
Chroma subsampling : 4:2:0
Bit depth : 8 bits
Scan type : Progressive
Bits/(Pixel*Frame) : 0.442
Stream size : 15.4 GiB (84%)
Title : Kler 2018 1080p BluRay DTS x264-DON
Writing library : x264 core 157 r2970+47 cae74a0 t_mod_New [0-bit@all X86_64]
Encoding settings : cabac=1 / ref=5 / deblock=1:-3:-3 / analyse=0x3:0x133 / me=umh / subme=11 / psy=1 / fade_compensate=0.00 / psy_rd=1.03:0.00 / mixed_ref=1 / me_range=32 / chroma_me=1 / trellis=2 / 8x8dct=1 / cqm=0 / deadzone=21,11 / fast_pskip=0 / chroma_qp_offset=-2 / threads=6 / lookahead_threads=1 / sliced_threads=0 / nr=0 / decimate=0 / interlaced=0 / bluray_compat=0 / constrained_intra=0 / fgo=0 / bframes=11 / b_pyramid=2 / b_adapt=2 / b_bias=0 / direct=3 / weightb=1 / open_gop=0 / weightp=2 / keyint=240 / keyint_min=24 / scenecut=40 / intra_refresh=0 / rc_lookahead=60 / rc=crf / mbtree=0 / crf=16.9000 / qcomp=0.60 / qpmin=0:0:0 / qpmax=69:69:69 / qpstep=4 / vbv_maxrate=62500 / vbv_bufsize=78125 / crf_max=0.0 / nal_hrd=none / filler=0 / ip_ratio=1.30 / pb_ratio=1.20 / aq=3:0.82 / aq-sensitivity=10.00 / aq-factor=1.00:1.00:1.00 / aq2=0 / aq3=0 / zones=229,340,crf=14.0/369,858,crf=13.0/3049,3446,crf=14.5/4093,4273,crf=15.0/8628,8789,crf=15.5/9346,9578,crf=15.0/10129,12690,crf=16.0/13229,13548,crf=14.0/91983,92042,crf=15.5/96690,96878,crf=14.5/120108,120305,crf=15.5/163593,164479,crf=16.0/182982,183023,crf=14.5/184348,184372,crf=15.0
Language : Polish
Default : Yes
Forced : Yes
Color range : Limited
Color primaries : BT.709
Transfer characteristics : BT.709
Matrix coefficients : BT.709
Audio #1
ID : 2
Format : DTS
Format/Info : Digital Theater Systems
Codec ID : A_DTS
Duration : 2 h 14 min
Bit rate mode : Constant
Bit rate : 1 509 kb/s
Channel(s) : 6 channels
Channel layout : C L R Ls Rs LFE
Sampling rate : 48.0 kHz
Frame rate : 93.750 FPS (512 SPF)
Bit depth : 24 bits
Compression mode : Lossy
Stream size : 1.42 GiB (8%)
Language : Russian
Default : Yes
Forced : No
Audio #2
ID : 3
Format : DTS
Format/Info : Digital Theater Systems
Codec ID : A_DTS
Duration : 2 h 14 min
Bit rate mode : Constant
Bit rate : 1 509 kb/s
Channel(s) : 6 channels
Channel layout : C L R Ls Rs LFE
Sampling rate : 48.0 kHz
Frame rate : 93.750 FPS (512 SPF)
Bit depth : 24 bits
Compression mode : Lossy
Stream size : 1.42 GiB (8%)
Language : Polish
Default : No
Forced : No
Text #1
ID : 4
Format : UTF-8
Codec ID : S_TEXT/UTF8
Codec ID/Info : UTF-8 Plain Text
Duration : 47 s 385 ms
Bit rate : 30 b/s
Count of elements : 3
Stream size : 179 Bytes (0%)
Title : Forced
Language : Russian
Default : Yes
Forced : No
Text #2
ID : 5
Format : UTF-8
Codec ID : S_TEXT/UTF8
Codec ID/Info : UTF-8 Plain Text
Duration : 2 h 5 min
Bit rate : 69 b/s
Count of elements : 1151
Stream size : 64.1 KiB (0%)
Title : Full
Language : Russian
Default : No
Forced : No
Text #3
ID : 6
Format : UTF-8
Codec ID : S_TEXT/UTF8
Codec ID/Info : UTF-8 Plain Text
Duration : 2 h 12 min
Bit rate : 42 b/s
Count of elements : 1167
Stream size : 41.0 KiB (0%)
Language : English
Default : No
Forced : No
Text #4
ID : 7
Format : UTF-8
Codec ID : S_TEXT/UTF8
Codec ID/Info : UTF-8 Plain Text
Duration : 2 h 5 min
Bit rate : 43 b/s
Count of elements : 1256
Stream size : 39.6 KiB (0%)
Language : French
Default : No
Forced : No
Text #5
ID : 8
Format : UTF-8
Codec ID : S_TEXT/UTF8
Codec ID/Info : UTF-8 Plain Text
Duration : 1 h 52 min
Bit rate : 1 b/s
Count of elements : 42
Stream size : 1.10 KiB (0%)
Title : Forced
Language : Polish
Default : No
Forced : No
Text #6
ID : 9
Format : UTF-8
Codec ID : S_TEXT/UTF8
Codec ID/Info : UTF-8 Plain Text
Duration : 2 h 10 min
Bit rate : 40 b/s
Count of elements : 1139
Stream size : 38.8 KiB (0%)
Language : Polish
Default : No
Forced : No
Text #7
ID : 10
Format : UTF-8
Codec ID : S_TEXT/UTF8
Codec ID/Info : UTF-8 Plain Text
Duration : 2 h 10 min
Bit rate : 44 b/s
Count of elements : 1244
Stream size : 42.7 KiB (0%)
Title : SDH
Language : Polish
Default : No
Forced : No
Menu
00:00:00.000 : pl:Chapter 01
00:13:11.875 : pl:Chapter 02
00:23:26.833 : pl:Chapter 03
00:31:38.916 : pl:Chapter 04
00:41:45.041 : pl:Chapter 05
00:53:36.333 : pl:Chapter 06
01:00:51.375 : pl:Chapter 07
01:12:34.541 : pl:Chapter 08
01:26:12.416 : pl:Chapter 09
01:35:40.041 : pl:Chapter 10
01:49:49.458 : pl:Chapter 11
02:03:06.541 : pl:Chapter 12

Скриншоты

Профиль [ЛС]
Показать сообщения:    

Текущее время: 24-Янв 18:16

Часовой пояс: UTC ± 0



Вы не можете начинать темы
Вы не можете отвечать на сообщения
Вы не можете редактировать свои сообщения
Вы не можете удалять свои сообщения
Вы не можете голосовать в опросах
Вы не можете прикреплять файлы к сообщениям
Вы не можете скачивать файлы