MAGNAT ®

Пол:
Мужской
Стаж:
1 год 9 месяцев
Сообщений:
9230

Дедушка нелегкого поведения / The War with Grandpa
--Страна: США
Студия: Marro Films, Emmett/Furla/Oasis Films (EFO Films), TRI G
Жанр: комедия, семейный
Год выпуска: 2020
Продолжительность: 01:35:01--Перевод: Профессиональный (дублированный) iTunes
Субтитры: русские, английские (full, SDH)
Оригинальная аудиодорожка: английский--Режиссер: Тим Хилл / Tim Hill
В ролях: Роберт Де Ниро, Оакс Фигли, Кристофер Уокен, Ума Турман, Джейн Сеймур, Роб Риггл, Чич Марин, Лора Марано, Хулиосезар Чавез, Айзек Крагтен--Описание: Пенсионер Эд подрался с охранником супермаркета, после чего по совету полиции дочь перевозит его в дом своей семьи. Сам он от переезда не в восторге, а его 12-летний внук Питер просто в бешенстве, ведь деду отдали его любимую комнату, а самого парня переселили на чердак. Не желая мириться с этой вопиющей несправедливостью и не думая о последствиях, мальчик объявляет дедуле войну. Но пенсионер оказывается не так прост, ведь он-то был на настоящей войне и как старый солдат готов нести потери.---Тип релиза: BDRip 1080p
Контейнер: MKV
Видео: MPEG-4 AVC Video / 15,0 Mbps / 1920x1038 / 23,976 fps / 1,85:1 / High Profile 4.1
Аудио 1: Russian AC3 / 5.1 / 48 kHz / 384 kbps |Dub, iTunes|
Аудио 2: English E-AC3 / 5.1 / 48 kHz / 768 kbps |original|

MediaInfo

Код:
Общее
Уникальный идентификатор : 127845931510250781265080321032323143617 (0x602E3B1428F5A9EC844FDD6C464117C1)
Полное имя : G:\HD\Дедушка нелегкого поведения.2020.BDRip.1080p.mkv
Формат : Matroska
Версия формата : Version 4
Размер файла : 10,7 Гбайт
Продолжительность : 1 ч. 35 м.
Общий поток : 16,2 Мбит/сек
Дата кодирования : UTC 2020-12-21 21:08:59
Программа кодирования : mkvmerge v51.0.0 ('I Wish') 64-bit
Библиотека кодирования : libebml v1.4.0 + libmatroska v1.6.2
Attachments : poster.jpg
Видео
Идентификатор : 1
Формат : AVC
Формат/Информация : Advanced Video Codec
Профиль формата : High@L4.1
Настройки формата : CABAC / 4 Ref Frames
Параметр CABAC формата : Да
Параметр RefFrames формата : 4 кадра
Идентификатор кодека : V_MPEG4/ISO/AVC
Продолжительность : 1 ч. 35 м.
Битрейт : 15,0 Мбит/сек
Ширина : 1 920 пикселей
Высота : 1 038 пикселей
Соотношение сторон : 1,85:1
Режим частоты кадров : Постоянный
Частота кадров : 23,976 (24000/1001) кадра/сек
Цветовое пространство : YUV
Субдискретизация насыщенности : 4:2:0
Битовая глубина : 8 бит
Тип развёртки : Прогрессивная
Бит/(Пиксели*Кадры) : 0.314
Размер потока : 9,96 Гбайт (93%)
Заголовок : The.War.with.Grandpa.2020.1080p.REPACK.BluRay.DD+5.1.x264-iFT
Библиотека кодирования : x264 core 161 r3018+53 ~ Encoded by Mocunaman in Portugal
Настройки программы : cabac=1 / ref=4 / deblock=1:-3:-3 / analyse=0x3:0x113 / me=umh / subme=11 / psy=1 / fade_compensate=0.00 / psy_rd=1.00:0.00 / mixed_ref=1 / me_range=32 / chroma_me=1 / trellis=2 / 8x8dct=1 / cqm=0 / deadzone=21,11 / fast_pskip=0 / chroma_qp_offset=-2 / threads=32 / lookahead_threads=5 / sliced_threads=0 / nr=0 / decimate=0 / interlaced=0 / bluray_compat=0 / constrained_intra=0 / fgo=0 / bframes=8 / b_pyramid=2 / b_adapt=2 / b_bias=0 / direct=3 / weightb=1 / open_gop=0 / weightp=2 / keyint=250 / keyint_min=23 / scenecut=40 / intra_refresh=0 / rc_lookahead=60 / rc=crf / mbtree=0 / crf=16.9000 / qcomp=0.65 / qpmin=0:0:0 / qpmax=69:69:69 / qpstep=4 / vbv_maxrate=62500 / vbv_bufsize=78125 / crf_max=0.0 / nal_hrd=none / filler=0 / ip_ratio=1.30 / pb_ratio=1.20 / aq=3:0.85 / aq-sensitivity=10.00 / aq-factor=1.00:1.00:1.00 / aq2=0 / aq3=0 / zones=17454,18606,crf=16.5/19470,21931,crf=16.5/31734,34694,crf=16.5/38896,43192,crf=16.5/49054,49760,crf=16.5/54386,57509,crf=16.5/60263,63242,crf=16.5/92591,93659,crf=16
Язык : English
Default : Да
Forced : Нет
Цветовой диапазон : Limited
Основные цвета : BT.709
Характеристики трансфера : BT.709
Коэффициенты матрицы : BT.709
Аудио #1
Идентификатор : 2
Формат : AC-3
Формат/Информация : Audio Coding 3
Коммерческое название : Dolby Digital
Идентификатор кодека : A_AC3
Продолжительность : 1 ч. 34 м.
Вид битрейта : Постоянный
Битрейт : 384 Кбит/сек
Каналы : 6 каналов
Channel layout : L R C LFE Ls Rs
Частота : 48,0 КГц
Частота кадров : 31,250 кадров/сек (1536 SPF)
Метод сжатия : С потерями
Размер потока : 261 Мбайт (2%)
Заголовок : Dub, iTunes
Язык : Russian
Service kind : Complete Main
Default : Да
Forced : Нет
Аудио #2
Идентификатор : 3
Формат : E-AC-3
Формат/Информация : Enhanced AC-3
Коммерческое название : Dolby Digital Plus
Идентификатор кодека : A_EAC3
Продолжительность : 1 ч. 35 м.
Вид битрейта : Постоянный
Битрейт : 768 Кбит/сек
Каналы : 6 каналов
Channel layout : L R C LFE Ls Rs
Частота : 48,0 КГц
Частота кадров : 31,250 кадров/сек (1536 SPF)
Метод сжатия : С потерями
Размер потока : 522 Мбайт (5%)
Язык : English
Service kind : Complete Main
Default : Нет
Forced : Нет
Текст #1
Идентификатор : 4
Формат : UTF-8
Идентификатор кодека : S_TEXT/UTF8
Идентификатор кодека/Информация : UTF-8 Plain Text
Продолжительность : 1 ч. 32 м.
Битрейт : 100 бит/сек
Count of elements : 1200
Размер потока : 67,8 Кбайт (0%)
Язык : Russian
Default : Нет
Forced : Нет
Текст #2
Идентификатор : 5
Формат : UTF-8
Идентификатор кодека : S_TEXT/UTF8
Идентификатор кодека/Информация : UTF-8 Plain Text
Продолжительность : 1 ч. 33 м.
Битрейт : 71 бит/сек
Count of elements : 1679
Размер потока : 48,6 Кбайт (0%)
Заголовок : full
Язык : English
Default : Нет
Forced : Нет
Текст #3
Идентификатор : 6
Формат : UTF-8
Идентификатор кодека : S_TEXT/UTF8
Идентификатор кодека/Информация : UTF-8 Plain Text
Продолжительность : 1 ч. 33 м.
Битрейт : 75 бит/сек
Count of elements : 1835
Размер потока : 51,8 Кбайт (0%)
Заголовок : SDH
Язык : English
Default : Нет
Forced : Нет
Меню
00:00:00.000 : en:Chapter 01
00:05:53.144 : en:Chapter 02
00:10:50.566 : en:Chapter 03
00:15:25.174 : en:Chapter 04
00:19:45.225 : en:Chapter 05
00:24:17.497 : en:Chapter 06
00:29:59.923 : en:Chapter 07
00:34:45.958 : en:Chapter 08
00:40:09.073 : en:Chapter 09
00:44:08.187 : en:Chapter 10
00:50:29.526 : en:Chapter 11
00:57:26.818 : en:Chapter 12
01:00:21.576 : en:Chapter 13
01:05:16.829 : en:Chapter 14
01:09:57.401 : en:Chapter 15
01:11:02.967 : en:Chapter 16
01:17:56.755 : en:Chapter 17
01:22:38.495 : en:Chapter 18
01:26:27.724 : en:Chapter 19
01:28:39.480 : en:Chapter 20

Скриншоты


Профиль [ЛС]
Показать сообщения:    

Текущее время: 19-Янв 10:58

Часовой пояс: UTC ± 0



Вы не можете начинать темы
Вы не можете отвечать на сообщения
Вы не можете редактировать свои сообщения
Вы не можете удалять свои сообщения
Вы не можете голосовать в опросах
Вы не можете прикреплять файлы к сообщениям
Вы не можете скачивать файлы