MAGNAT ®

Пол:
Мужской
Стаж:
1 год 9 месяцев
Сообщений:
9230

Дум: Аннигиляция
Doom: Annihilation
Страна: США
Жанр: ужасы, фантастика, боевик, триллер, приключения
Год выпуска: 2019
Продолжительность: 01:27:32
Перевод 1: Профессиональный (дублированный) - ТВ3
Перевод 2: Любительский (многоголосый, закадровый) - Mallorn (совсем чуть-чуть ненормативной лексики)
Оригинальная аудиодорожка: английская
Субтитры: английские (для каждого персонажа), французские, испанские-Режиссёр: Тони Гиглио / Tony Giglio
В ролях: Эми Мэнсон, Луис Мэндилор, Нина Бергман, Кейт Николс, Лорина Камбурова, Доминик Мафэм, Люк Аллен-Гейл, Хари Диллон, Амер Чадха-Патель, Джемма Мур-Описание: Отряд морпехов прилетает на марсианский спутник Фобос, где ведутся секретные эксперименты, связанные с телепортацией. По прибытии оказывается, что база практически обесточена и на связь не выходит. Проникнув в сооружение через эвакуационный выход, военные сталкиваются с многочисленными агрессивными монстрами, в которых превратились местные учёные.-Качество: BDRemux 1080p
Формат: MKV
Видео: MPEG-4 AVC Video / 33300 kbps / 1080p / 23.976 fps / 16:9 / High Profile 4.1
Аудио 1: AC3, 48 kHz, 2ch, 192.00 kbps: DUB| ТВ3
Аудио 2: AC3, 48 kHz, 2ch, 256.00 kbps: MVO| Mallorn
Аудио 3: English / DTS-HD Master Audio English 3840 kbps 5.1 / 48 kHz / 3840 kbps / 24-bit (DTS Core: 5.1 / 48 kHz / 1509 kbps / 24-bit) [ENG]
Формат субтитров: softsub (SRT), prerendered (Blu-ray/PGS/SUP)
Разбивка на главы: есть

MediaInfo

Общее
Уникальный идентификатор : 182393556502326423986762389797547015277 (0x8937B8A16C27A2A1C9135DE7CEB3FC6D)
Полное имя : D:\HD видео\Doom Annihilation (2019) BluRay Remux.mkv
Формат : Matroska
Версия формата : Version 4
Размер файла : 25,4 Гбайт
Продолжительность : 1 ч. 36 м.
Режим общего битрейта : Переменный
Общий поток : 37,6 Мбит/сек
Дата кодирования : UTC 2020-12-25 10:24:13
Программа кодирования : mkvmerge v51.0.0 ('I Wish') 64-bit
Библиотека кодирования : libebml v1.4.0 + libmatroska v1.6.2
Видео
Идентификатор : 1
Формат : AVC
Формат/Информация : Advanced Video Codec
Профиль формата : High@L4.1
Настройки формата : CABAC / 4 Ref Frames
Параметр CABAC формата : Да
Параметр RefFrames формата : 4 кадра
Параметр GOP формата : M=3, N=12
Идентификатор кодека : V_MPEG4/ISO/AVC
Продолжительность : 1 ч. 36 м.
Вид битрейта : Переменный
Битрейт : 33,3 Мбит/сек
Максимальный битрейт : 36,0 Мбит/сек
Ширина : 1 920 пикселей
Высота : 1 080 пикселей
Соотношение сторон : 16:9
Режим частоты кадров : Постоянный
Частота кадров : 23,976 (24000/1001) кадра/сек
Цветовое пространство : YUV
Субдискретизация насыщенности : 4:2:0
Битовая глубина : 8 бит
Тип развёртки : Прогрессивная
Бит/(Пиксели*Кадры) : 0.669
Размер потока : 22,5 Гбайт (88%)
Заголовок : MPEG-4 AVC Video / 34145 kbps / 1080p / 23.976 fps / 16:9 / High Profile 4.1
Язык : English
Default : Да
Forced : Нет
Аудио #1
Идентификатор : 2
Формат : AC-3
Формат/Информация : Audio Coding 3
Коммерческое название : Dolby Digital
Идентификатор кодека : A_AC3
Продолжительность : 1 ч. 36 м.
Вид битрейта : Постоянный
Битрейт : 192 Кбит/сек
Каналы : 2 канала
Channel layout : L R
Частота : 48,0 КГц
Частота кадров : 31,250 кадров/сек (1536 SPF)
Метод сжатия : С потерями
Размер потока : 133 Мбайт (1%)
Заголовок : DUB (ТВ3)
Язык : Russian
Service kind : Complete Main
Default : Да
Forced : Нет
Аудио #2
Идентификатор : 3
Формат : AC-3
Формат/Информация : Audio Coding 3
Коммерческое название : Dolby Digital
Идентификатор кодека : A_AC3
Продолжительность : 1 ч. 36 м.
Вид битрейта : Постоянный
Битрейт : 256 Кбит/сек
Каналы : 2 канала
Channel layout : L R
Частота : 48,0 КГц
Частота кадров : 31,250 кадров/сек (1536 SPF)
Метод сжатия : С потерями
Размер потока : 177 Мбайт (1%)
Заголовок : MVO (Mallorn)
Язык : Russian
Service kind : Complete Main
Default : Нет
Forced : Нет
Аудио #3
Идентификатор : 4
Формат : DTS XLL
Формат/Информация : Digital Theater Systems
Коммерческое название : DTS-HD Master Audio
Идентификатор кодека : A_DTS
Продолжительность : 1 ч. 36 м.
Вид битрейта : Переменный
Битрейт : 3 840 Кбит/сек
Каналы : 6 каналов
Channel layout : C L R Ls Rs LFE
Частота : 48,0 КГц
Частота кадров : 93,750 кадра/сек (512 SPF)
Битовая глубина : 24 бит
Метод сжатия : Без потерь
Размер потока : 2,59 Гбайт (10%)
Заголовок : DTS-HD Master Audio / 5.1 / 48 kHz / 3840 kbps / 24-bit
Язык : English
Default : Нет
Forced : Нет
Текст #1
Идентификатор : 5
Формат : UTF-8
Идентификатор кодека : S_TEXT/UTF8
Идентификатор кодека/Информация : UTF-8 Plain Text
Продолжительность : 1 ч. 32 м.
Битрейт : 57 бит/сек
Count of elements : 1360
Размер потока : 39,0 Кбайт (0%)
Язык : English
Default : Нет
Forced : Нет
Текст #2
Идентификатор : 6
Формат : PGS
Режим смешивания : zlib
Идентификатор кодека : S_HDMV/PGS
Идентификатор кодека/Информация : Picture based subtitle format used on BDs/HD-DVDs
Продолжительность : 1 ч. 32 м.
Битрейт : 40,2 Кбит/сек
Count of elements : 2722
Размер потока : 26,7 Мбайт (0%)
Заголовок : SDH
Язык : English
Default : Нет
Forced : Нет
Текст #3
Идентификатор : 7
Формат : PGS
Режим смешивания : zlib
Идентификатор кодека : S_HDMV/PGS
Идентификатор кодека/Информация : Picture based subtitle format used on BDs/HD-DVDs
Продолжительность : 1 ч. 35 м.
Битрейт : 30,8 Кбит/сек
Count of elements : 2181
Размер потока : 21,0 Мбайт (0%)
Язык : French
Default : Нет
Forced : Нет
Текст #4
Идентификатор : 8
Формат : PGS
Режим смешивания : zlib
Идентификатор кодека : S_HDMV/PGS
Идентификатор кодека/Информация : Picture based subtitle format used on BDs/HD-DVDs
Продолжительность : 1 ч. 35 м.
Битрейт : 34,3 Кбит/сек
Count of elements : 2189
Размер потока : 23,4 Мбайт (0%)
Заголовок : Latin American
Язык : Spanish
Default : Нет
Forced : Нет
Меню
00:00:00.000 : en:Chapter 1
00:04:46.410 : en:Chapter 2
00:11:39.073 : en:Chapter 3
00:17:51.195 : en:Chapter 4
00:21:43.593 : en:Chapter 5
00:25:43.792 : en:Chapter 6
00:29:18.673 : en:Chapter 7
00:34:06.836 : en:Chapter 8
00:39:14.018 : en:Chapter 9
00:45:43.907 : en:Chapter 10
00:49:57.661 : en:Chapter 11
00:54:35.230 : en:Chapter 12
01:00:09.981 : en:Chapter 13
01:04:59.562 : en:Chapter 14
01:11:41.630 : en:Chapter 15
01:16:43.140 : en:Chapter 16
01:21:27.215 : en:Chapter 17
01:25:45.431 : en:Chapter 18
01:31:38.618 : en:Chapter 19
01:33:37.695 : en:Chapter 20

Скриншоты


Профиль [ЛС]
Показать сообщения:    

Текущее время: 19-Янв 11:46

Часовой пояс: UTC ± 0



Вы не можете начинать темы
Вы не можете отвечать на сообщения
Вы не можете редактировать свои сообщения
Вы не можете удалять свои сообщения
Вы не можете голосовать в опросах
Вы не можете прикреплять файлы к сообщениям
Вы не можете скачивать файлы