MAGNAT ®

Пол:
Мужской
Стаж:
1 год 9 месяцев
Сообщений:
9230

Зимняя сказка, или Королева, потерявшая имя / Штормовое предупреждение / Fräulein: una fiaba d'inverno
Страна: Италия
Студия: Tempesta, Rai Cinema, Ministero dei Beni e delle Attività Culturali e del Turismo (MiBACT)
Жанр: комедия, фэнтези
Год выпуска: 2016
Продолжительность: 01:34:01
Перевод 1: Профессиональный (двухголосый закадровый) (Арт-студия "Филолог" по заказу компании "ПилотКино") IVI
Перевод 2: Профессиональный (многоголосый закадровый) (т/к Eurochannel)
Субтитры: Русские
Оригинальная аудиодорожка: Итальянский
Режиссер: Катерина Кароне / Caterina Carone
В ролях: Кристиан Де Сика, Лучиа Машино, Макс Маццотта, Тереза Хемер, Ирина Врона, Андреа Германи, Джасмин Барбара Мэйрхофер, Луиджи Делладио, Питер Миттерруцнер, Ингрид Блим Эспозито, Маттиа Брутто
Описание: Много лет Регина (с итальянского Regina - "королева") жила в одиночестве в своем пустом отеле у подножья Альп. Размеренный быт круто меняет настойчивый турист Вальтер - мужчина преклонного возраста, но инфантильного склада характера. Игнорируя вывеску «Закрыто», Вальтер навязывается к Регине в постояльцы. Он наводит сумятицу в ее суровом и холодном «царстве», заставляя пробудиться от многолетней спячки и вдохновляя на перемены.
Качество видео: WEB-DL 1080p
Формат видео: MKV
Видео: MPEG-4, 1920x1038 (1,85:1), 5120 kbps, 24 fps, 0.107 bit/pixel
Аудио 1: Русский AAC, 48000 Гц, 6ch, 512 kbps - DVO
Аудио 2: Русский AC3, 48000 Гц, 2ch, 192 kbps - MVO
Аудио 3: Итальянский AC3, 48000 Гц, 6ch, 448 kbps
Формат субтитров: softsub (SRT)

MediaInfo

Общее
Уникальный идентификатор : 83743381681536676597956495518277872880 (0x3F00637E12B38141843B2C75E6E8ACF0)
Полное имя : Fraulein.una.fiaba.dinverno.2016.WEB.1080p-ylnian.mkv
Формат : Matroska
Версия формата : Version 4
Размер файла : 4,10 Гбайт
Продолжительность : 1 ч. 34 м.
Общий поток : 6 250 Кбит/сек
Дата кодирования : UTC 2020-12-28 06:06:57
Программа кодирования : mkvmerge v51.0.0 ('I Wish') 64-bit
Библиотека кодирования : libebml v1.4.0 + libmatroska v1.6.2
Видео
Идентификатор : 1
Формат : AVC
Формат/Информация : Advanced Video Codec
Профиль формата : High@L4
Настройки формата : CABAC / 4 Ref Frames
Параметр CABAC формата : Да
Параметр RefFrames формата : 4 кадра
Идентификатор кодека : V_MPEG4/ISO/AVC
Продолжительность : 1 ч. 34 м.
Битрейт : 5 120 Кбит/сек
Ширина : 1 920 пикселей
Высота : 1 038 пикселей
Соотношение сторон : 1,85:1
Режим частоты кадров : Постоянный
Частота кадров : 24,000 кадра/сек
Цветовое пространство : YUV
Субдискретизация насыщенности : 4:2:0
Битовая глубина : 8 бит
Тип развёртки : Прогрессивная
Бит/(Пиксели*Кадры) : 0.107
Размер потока : 3,35 Гбайт (82%)
Библиотека кодирования : x264 core 148
Настройки программы : cabac=1 / ref=3 / deblock=1:0:0 / analyse=0x3:0x113 / me=hex / subme=7 / psy=1 / psy_rd=1.00:0.00 / mixed_ref=1 / me_range=16 / chroma_me=1 / trellis=1 / 8x8dct=1 / cqm=0 / deadzone=21,11 / fast_pskip=1 / chroma_qp_offset=-2 / threads=32 / lookahead_threads=5 / sliced_threads=0 / nr=0 / decimate=1 / interlaced=0 / bluray_compat=0 / constrained_intra=0 / bframes=6 / b_pyramid=2 / b_adapt=1 / b_bias=0 / direct=1 / weightb=1 / open_gop=0 / weightp=2 / keyint=48 / keyint_min=25 / scenecut=0 / intra_refresh=0 / rc_lookahead=40 / rc=2pass / mbtree=1 / bitrate=5120 / ratetol=1.0 / qcomp=0.60 / qpmin=0 / qpmax=69 / qpstep=4 / cplxblur=20.0 / qblur=0.5 / vbv_maxrate=7680 / vbv_bufsize=20480 / nal_hrd=none / filler=0 / ip_ratio=1.40 / aq=1:1.00
Язык : Italian
Default : Да
Forced : Нет
Аудио #1
Идентификатор : 2
Формат : AAC LC
Формат/Информация : Advanced Audio Codec Low Complexity
Идентификатор кодека : A_AAC-2
Продолжительность : 1 ч. 34 м.
Битрейт : 512 Кбит/сек
Каналы : 6 каналов
Channel layout : C L R Ls Rs LFE
Частота : 48,0 КГц
Частота кадров : 46,875 кадров/сек (1024 SPF)
Метод сжатия : С потерями
Размер потока : 344 Мбайт (8%)
Язык : Russian
Default : Да
Forced : Нет
Аудио #2
Идентификатор : 3
Формат : AC-3
Формат/Информация : Audio Coding 3
Коммерческое название : Dolby Digital
Идентификатор кодека : A_AC3
Продолжительность : 1 ч. 34 м.
Вид битрейта : Постоянный
Битрейт : 192 Кбит/сек
Каналы : 2 канала
Channel layout : L R
Частота : 48,0 КГц
Частота кадров : 31,250 кадров/сек (1536 SPF)
Метод сжатия : С потерями
Размер потока : 129 Мбайт (3%)
Язык : Russian
Service kind : Complete Main
Default : Нет
Forced : Нет
Аудио #3
Идентификатор : 4
Формат : AC-3
Формат/Информация : Audio Coding 3
Коммерческое название : Dolby Digital
Идентификатор кодека : A_AC3
Продолжительность : 1 ч. 34 м.
Вид битрейта : Постоянный
Битрейт : 448 Кбит/сек
Каналы : 6 каналов
Channel layout : L R C LFE Ls Rs
Частота : 48,0 КГц
Частота кадров : 31,250 кадров/сек (1536 SPF)
Метод сжатия : С потерями
Размер потока : 301 Мбайт (7%)
Язык : Italian
Service kind : Complete Main
Default : Нет
Forced : Нет
Текст
Идентификатор : 5
Формат : UTF-8
Идентификатор кодека : S_TEXT/UTF8
Идентификатор кодека/Информация : UTF-8 Plain Text
Продолжительность : 1 ч. 28 м.
Битрейт : 64 бит/сек
Count of elements : 987
Размер потока : 42,0 Кбайт (0%)
Язык : Russian
Default : Нет
Forced : Нет
Профиль [ЛС]
Показать сообщения:    

Текущее время: 19-Янв 11:27

Часовой пояс: UTC ± 0



Вы не можете начинать темы
Вы не можете отвечать на сообщения
Вы не можете редактировать свои сообщения
Вы не можете удалять свои сообщения
Вы не можете голосовать в опросах
Вы не можете прикреплять файлы к сообщениям
Вы не можете скачивать файлы