MAGNAT ®

Пол:
Мужской
Стаж:
1 год 9 месяцев
Сообщений:
9230

Праздник к нам приходит / It's Beginning to Look a Lot Like Christmas
Страна: США
Студия: Crown Media Productions
Жанр: комедия, семейный
Год выпуска: 2019
Продолжительность: 01:21:32
Перевод: Профессиональный (многоголосый закадровый) IVI
Субтитры: нет
Оригинальная аудиодорожка: нет
Режиссер: Дэвид Уивер / David Weaver
В ролях: Триша Хелфер, Эрик Мэбиас, Ализа Веллани, Рафаэль Пеллерин, Майкл Копса, Коллин Уинтон, Нолан Хапп, Питер Бенсон, Эйприл Телек, Вив Ликок, Байрон Ноубл, Катрина Рейнольдс, Сьюзи Уолл
Описание: Сара и Лиам - мэры двух соседних городков в Нью Хэмпшире. Когда начинается ежегодный конкурс украшений к Рождеству, оба городка неожиданно добиваются высоких результатов. Несмотря на то, что каждый из героев мечтает о победе собственного города, они оба понимают, что только сообща смогут подняться на пьедестал…Ради счастья своих горожан два мэра готовы на самые неожиданные шаги. Праздничный и атмосферный фильм для поклонников рождественских комедий.
Качество видео: WEB-DL 1080p
Формат видео: MKV
Видео: MPEG-4, 1920x1080 (16:9), 5120 kbps, 25 fps, 0.099 bit/pixel
Аудио: Русский AAC, 48000 Гц, 2ch, 256 kbps

MediaInfo

Общее
Уникальный идентификатор : 171229205062787136706097216983357345308 (0x80D18B9B4C344055FF90D06418EE4E1C)
Полное имя : Its.Beginning.to.Look.a.Lot.Like.Christmas.2019.WEB.1080p-ylnian.mkv
Формат : Matroska
Версия формата : Version 4
Размер файла : 3,06 Гбайт
Продолжительность : 1 ч. 21 м.
Общий поток : 5 367 Кбит/сек
Дата кодирования : UTC 2020-12-28 10:56:10
Программа кодирования : mkvmerge v51.0.0 ('I Wish') 64-bit
Библиотека кодирования : libebml v1.4.0 + libmatroska v1.6.2
Видео
Идентификатор : 1
Формат : AVC
Формат/Информация : Advanced Video Codec
Профиль формата : High@L4
Настройки формата : CABAC / 4 Ref Frames
Параметр CABAC формата : Да
Параметр RefFrames формата : 4 кадра
Идентификатор кодека : V_MPEG4/ISO/AVC
Продолжительность : 1 ч. 21 м.
Битрейт : 5 120 Кбит/сек
Ширина : 1 920 пикселей
Высота : 1 080 пикселей
Соотношение сторон : 16:9
Режим частоты кадров : Постоянный
Частота кадров : 25,000 кадров/сек
Цветовое пространство : YUV
Субдискретизация насыщенности : 4:2:0
Битовая глубина : 8 бит
Тип развёртки : Прогрессивная
Бит/(Пиксели*Кадры) : 0.099
Размер потока : 2,91 Гбайт (95%)
Библиотека кодирования : x264 core 148
Настройки программы : cabac=1 / ref=3 / deblock=1:0:0 / analyse=0x3:0x113 / me=hex / subme=7 / psy=1 / psy_rd=1.00:0.00 / mixed_ref=1 / me_range=16 / chroma_me=1 / trellis=1 / 8x8dct=1 / cqm=0 / deadzone=21,11 / fast_pskip=1 / chroma_qp_offset=-2 / threads=34 / lookahead_threads=5 / sliced_threads=0 / nr=0 / decimate=1 / interlaced=0 / bluray_compat=0 / constrained_intra=0 / bframes=6 / b_pyramid=2 / b_adapt=1 / b_bias=0 / direct=1 / weightb=1 / open_gop=0 / weightp=2 / keyint=50 / keyint_min=26 / scenecut=0 / intra_refresh=0 / rc_lookahead=40 / rc=2pass / mbtree=1 / bitrate=5120 / ratetol=1.0 / qcomp=0.60 / qpmin=0 / qpmax=69 / qpstep=4 / cplxblur=20.0 / qblur=0.5 / vbv_maxrate=7680 / vbv_bufsize=20480 / nal_hrd=none / filler=0 / ip_ratio=1.40 / aq=1:1.00
Язык : English
Default : Да
Forced : Нет
Аудио
Идентификатор : 2
Формат : AAC LC
Формат/Информация : Advanced Audio Codec Low Complexity
Идентификатор кодека : A_AAC-2
Продолжительность : 1 ч. 21 м.
Битрейт : 256 Кбит/сек
Каналы : 2 канала
Channel layout : L R
Частота : 48,0 КГц
Частота кадров : 46,875 кадров/сек (1024 SPF)
Метод сжатия : С потерями
Размер потока : 149 Мбайт (5%)
Язык : Russian
Default : Да
Forced : Нет
Профиль [ЛС]
Показать сообщения:    

Текущее время: 19-Янв 11:02

Часовой пояс: UTC ± 0



Вы не можете начинать темы
Вы не можете отвечать на сообщения
Вы не можете редактировать свои сообщения
Вы не можете удалять свои сообщения
Вы не можете голосовать в опросах
Вы не можете прикреплять файлы к сообщениям
Вы не можете скачивать файлы