MAGNAT ®

Пол:
Мужской
Стаж:
1 год 9 месяцев
Сообщений:
9230

Бараны / Rams
-
Страна: Австралия
Жанр: Комедия, приключения, драма
Год выпуска: 2020
Продолжительность: 01:54:03-Перевод: Профессиональный (дублированный) | (iTunes)
Cубтитры: Нет
Оригинальная аудиодорожка: Нет-Режиссёр: Джереми Симс / Jeremy Sims
В ролях: Сэм Нил, Майкл Кейтон, Миранда Ричардсон, Ашер Кедди, Хейли МакЭлхинни, Уэйн Блэр, Леон Форд, Трэвис МакМахон, Ашер Ясбинчек, Кипан Ротбери
Описание: Упертый Колин и упрямый Лес – братья-фермеры. Они работают бок о бок, но не разговаривают друг с другом вот уже лет сорок. Из поколения в поколение их семья разводила баранов, которые не раз завоевывали почетное звание «Баран года». Но однажды баран Леса заболел, и власти постановили забить все стадо. Братья сделают все, чтобы спасти честь семьи и своих баранов, но как тут можно действовать молча?--Тип релиза: WEB-DL 1080p
Контейнер: MKV-Видео: AVC/H.264, 1920x804, 4535 Kbps, 25.000 fps
Аудио: Русский | AC-3, 6 ch, 384 Kbps, 48.0 kHz
-

MediaInfo

Код:
General
Unique ID : 274420065945014390273395385912541262709 (0xCE7361DA1D7740B12130DC40A19B3375)
Complete name : /Volumes/Promise Pegasus/Rams.WEB-DL.1080p.mkv
Format : Matroska
Format version : Version 4
File size : 3.92 GiB
Duration : 1 h 54 min
Overall bit rate : 4 920 kb/s
Movie name : Rams WEB-DL 1080p
Encoded date : UTC 2020-12-30 21:57:24
Writing application : mkvmerge v51.0.0 ('I Wish') 64-bit
Writing library : libebml v1.4.0 + libmatroska v1.6.2
Video
ID : 1
Format : AVC
Format/Info : Advanced Video Codec
Format profile : High@L4
Format settings : CABAC / 5 Ref Frames
Format settings, CABAC : Yes
Format settings, Reference frames : 5 frames
Codec ID : V_MPEG4/ISO/AVC
Duration : 1 h 54 min
Bit rate : 4 535 kb/s
Width : 1 920 pixels
Height : 804 pixels
Display aspect ratio : 2.40:1
Frame rate mode : Constant
Frame rate : 25.000 FPS
Color space : YUV
Chroma subsampling : 4:2:0
Bit depth : 8 bits
Scan type : Progressive
Bits/(Pixel*Frame) : 0.118
Stream size : 3.61 GiB (92%)
Language : English
Default : Yes
Forced : No
Color range : Limited
Color primaries : BT.709
Transfer characteristics : BT.709
Matrix coefficients : BT.709
Audio
ID : 2
Format : AC-3
Format/Info : Audio Coding 3
Commercial name : Dolby Digital
Codec ID : A_AC3
Duration : 1 h 54 min
Bit rate mode : Constant
Bit rate : 384 kb/s
Channel(s) : 6 channels
Channel layout : L R C LFE Ls Rs
Sampling rate : 48.0 kHz
Frame rate : 31.250 FPS (1536 SPF)
Compression mode : Lossy
Delay relative to video : -40 ms
Stream size : 313 MiB (8%)
Title : Russian Dub iTunes
Language : Russian
Service kind : Complete Main
Default : Yes
Forced : No
Menu
00:00:00.000 : en:Глава 1
00:05:52.200 : en:Глава 2
00:12:02.200 : en:Глава 3
00:20:38.559 : en:Глава 4
00:26:33.719 : en:Глава 5
00:34:13.399 : en:Глава 6
00:39:26.879 : en:Глава 7
00:45:10.078 : en:Глава 8
00:52:18.038 : en:Глава 9
00:59:26.277 : en:Глава 10
01:09:41.997 : en:Глава 11
01:19:12.997 : en:Глава 12
01:25:22.917 : en:Глава 13
01:31:14.156 : en:Глава 14
01:38:55.515 : en:Глава 15
01:47:31.515 : en:Глава 16

Скриншоты

Профиль [ЛС]
Показать сообщения:    

Текущее время: 19-Янв 11:34

Часовой пояс: UTC ± 0



Вы не можете начинать темы
Вы не можете отвечать на сообщения
Вы не можете редактировать свои сообщения
Вы не можете удалять свои сообщения
Вы не можете голосовать в опросах
Вы не можете прикреплять файлы к сообщениям
Вы не можете скачивать файлы