MAGNAT ®

Пол:
Мужской
Стаж:
1 год 9 месяцев
Сообщений:
9230

Билитис / Bilitis
Страна: Франция, Италия
Студия: ECTA Filmproduktion, Les Films 21, Mars International Productions
Жанр: Мелодрама, эротика
Год выпуска: 1977
Продолжительность: 1:34:51
Перевод: Авторский (одноголосый закадровый) А. Алексеев
Субтитры: испанские, португальские, немецкие
Оригинальная аудиодорожка: французский
Режиссер: Дэвид Хэмилтон / David Hamilton
В ролях: Патти Д’Арбанвиль, Мона Кристенсен, Жиль Колер, Бернар Жиродо, Матьё Карьер, Ирка Бошенко, Жаклин Фонтен, Мари-Тереза Комон, Жермэн Дельба, Мадлен Дамьен и др.
Описание: Молодая французкая писательница Катрин Брейя, издавшая первый роман ещё в возрасте 20 лет, предложила Хэмилтону в один из излюбленных мотивов своего творчества интимный мир пятнадцатилетней воспитаницы интерната для девушек. Билитис влюблена в фотографа Люка, но её не привлекает физическая близость с мужчиной, напротив хочется нежных и возвышенных чувств. Страдает от грубости, невнимательности мужа также и прекрасная Мелисса, подруга родителей Билитис, которая пригласила девушку к себе на летние каникулы.
Краткие мгновения любовной связи Билитис и Мелиссы должны свидетельствовать о родстве душ. Но более взрослая, знаящая жизнь Мелисса отказывается от продолжения этого романа. Тогда Билитис решает найти для неё чуткого и приятного во всех отношениях любовника, не подозревая, что в результате сама столкнётся с первой в своей судьбе драмой ещё детской, наивной, но от этого не менее горькой.
Тип релиза: BDRemux 1080p
Контейнер: MKV
Видео: MPEG-4 AVC Video, 22.8 Mb/s, 1080p / 24,000 кадра/сек / 16:9 / High Profile 4.1
Аудио 1: Русский, 48.0KHz, AC-3, 2.0 ( L C), 192 Кбит/сек
Аудио 2: Французский, DTS-HD Master Audio / Core 1 712 kb/s / 1 509 kb/s / 2.0 (L R)
Аудио 3: Английский, AC-3, 48.0 KHz, 448 Кбит/сек, 2.0 (L R)
Формат субтитров: prerendered (Blu-ray/PGS/SUP)

MediaInfo

Общее
Уникальный идентификатор : 165931449756273960670396334386504444701 (0x7CD53C1A8CC6A125312E00075096AB1D)
Полное имя : C:\Users\marsh\Desktop\BILITIS.MKV
Формат : Matroska
Версия формата : Version 4
Размер файла : 16,7 Гбайт
Продолжительность : 1 ч. 34 м.
Режим общего битрейта : Переменный
Общий поток : 25,2 Мбит/сек
Дата кодирования : UTC 2020-12-30 17:29:46
Программа кодирования : mkvmerge v51.0.0 ('I Wish') 64-bit
Библиотека кодирования : libebml v1.4.0 + libmatroska v1.6.2
Видео
Идентификатор : 1
Формат : AVC
Формат/Информация : Advanced Video Codec
Профиль формата : High@L4.1
Настройки формата : CABAC / 3 Ref Frames
Параметр CABAC формата : Да
Параметр RefFrames формата : 3 кадра
Идентификатор кодека : V_MPEG4/ISO/AVC
Продолжительность : 1 ч. 34 м.
Вид битрейта : Переменный
Битрейт : 22,8 Мбит/сек
Максимальный битрейт : 40,0 Мбит/сек
Ширина : 1 920 пикселей
Высота : 1 080 пикселей
Соотношение сторон : 16:9
Режим частоты кадров : Постоянный
Частота кадров : 24,000 кадра/сек
Цветовое пространство : YUV
Субдискретизация насыщенности : 4:2:0
Битовая глубина : 8 бит
Тип развёртки : Прогрессивная
Бит/(Пиксели*Кадры) : 0.458
Размер потока : 15,1 Гбайт (91%)
Заголовок : Bilitis (1977)
Default : Да
Forced : Нет
Цветовой диапазон : Limited
Основные цвета : BT.709
Характеристики трансфера : BT.709
Коэффициенты матрицы : BT.709
Аудио #1
Идентификатор : 2
Формат : AC-3
Формат/Информация : Audio Coding 3
Коммерческое название : Dolby Digital
Идентификатор кодека : A_AC3
Продолжительность : 1 ч. 34 м.
Вид битрейта : Постоянный
Битрейт : 192 Кбит/сек
Каналы : 2 канала
Channel layout : L R
Частота : 48,0 КГц
Частота кадров : 31,250 кадров/сек (1536 SPF)
Метод сжатия : С потерями
Размер потока : 130 Мбайт (1%)
Заголовок : Русский
Язык : Russian
Service kind : Complete Main
Default : Да
Forced : Нет
Аудио #2
Идентификатор : 3
Формат : DTS XLL
Формат/Информация : Digital Theater Systems
Коммерческое название : DTS-HD Master Audio
Идентификатор кодека : A_DTS
Продолжительность : 1 ч. 34 м.
Вид битрейта : Переменный
Битрейт : 1 712 Кбит/сек
Каналы : 2 канала
Channel layout : L R
Частота : 48,0 КГц
Частота кадров : 93,750 кадра/сек (512 SPF)
Битовая глубина : 16 бит
Метод сжатия : Без потерь
Размер потока : 1,13 Гбайт (7%)
Заголовок : Французский
Язык : French
Default : Нет
Forced : Нет
Аудио #3
Идентификатор : 4
Формат : AC-3
Формат/Информация : Audio Coding 3
Коммерческое название : Dolby Digital
Идентификатор кодека : A_AC3
Продолжительность : 1 ч. 34 м.
Вид битрейта : Постоянный
Битрейт : 448 Кбит/сек
Каналы : 2 канала
Channel layout : L R
Частота : 48,0 КГц
Частота кадров : 31,250 кадров/сек (1536 SPF)
Метод сжатия : С потерями
Размер потока : 304 Мбайт (2%)
Заголовок : Английский
Язык : English
Service kind : Complete Main
Default : Нет
Forced : Нет
Текст #1
Идентификатор : 5
Формат : PGS
Режим смешивания : zlib
Идентификатор кодека : S_HDMV/PGS
Идентификатор кодека/Информация : Picture based subtitle format used on BDs/HD-DVDs
Продолжительность : 1 ч. 31 м.
Битрейт : 20,0 Кбит/сек
Count of elements : 1417
Размер потока : 13,1 Мбайт (0%)
Заголовок : Португальский
Язык : Portuguese
Default : Нет
Forced : Нет
Текст #2
Идентификатор : 6
Формат : PGS
Режим смешивания : zlib
Идентификатор кодека : S_HDMV/PGS
Идентификатор кодека/Информация : Picture based subtitle format used on BDs/HD-DVDs
Продолжительность : 1 ч. 31 м.
Битрейт : 19,4 Кбит/сек
Count of elements : 1429
Размер потока : 12,7 Мбайт (0%)
Заголовок : Испанский
Язык : Spanish
Default : Нет
Forced : Нет
Текст #3
Идентификатор : 7
Формат : PGS
Режим смешивания : zlib
Идентификатор кодека : S_HDMV/PGS
Идентификатор кодека/Информация : Picture based subtitle format used on BDs/HD-DVDs
Продолжительность : 1 ч. 31 м.
Битрейт : 26,1 Кбит/сек
Count of elements : 2315
Размер потока : 17,1 Мбайт (0%)
Заголовок : Немецкий
Язык : German
Default : Нет
Forced : Нет
Меню
00:00:00.000 : en:00:00:00.000
00:09:46.833 : en:00:09:46.833
00:20:03.667 : en:00:20:03.667
00:32:19.458 : en:00:32:19.458
00:44:54.042 : en:00:44:54.042
00:53:43.083 : en:00:53:43.083
01:06:19.125 : en:01:06:19.125
01:17:23.625 : en:01:17:23.625
Профиль [ЛС]
Показать сообщения:    

Текущее время: 19-Янв 11:06

Часовой пояс: UTC ± 0



Вы не можете начинать темы
Вы не можете отвечать на сообщения
Вы не можете редактировать свои сообщения
Вы не можете удалять свои сообщения
Вы не можете голосовать в опросах
Вы не можете прикреплять файлы к сообщениям
Вы не можете скачивать файлы