MAGNAT ®

Пол:
Мужской
Стаж:
1 год 9 месяцев
Сообщений:
9230

Без комплексов / Chamboultout
-
Страна: Франция, Бельгия
Жанр: Kомедия
Год выпуска: 2019
Продолжительность: 01:41:21-Перевод: Профессиональный (многоголосый закадровый) | (iTunes)
Cубтитры: Нет
Оригинальная аудиодорожка: Французский-Режиссёр: Эрик Лавэн / Eric Lavaine
В ролях: Александра Лами, Хосе Гарсия, Микаэль Юн, Энн Маривин, Меди Садун, Мишель Вюйермоз, Оливия Коте, Энн Жирар, Жан Франсуа Кэйри, Людивин де Шасне
Описание: Беатрис написала книгу о трагическом событии в семье: ее муж, Фредерик, попал в аварию. Он ослеп и, как бы, лишился фильтра: говорит все, что думает, и абсолютно непредсказуем. Тем временем все друзья семьи выискивают себя среди персонажей романа, и старые конфликты пробуждаются.-Тип релиза: BDRemux 1080p
Контейнер: MKV-Видео: MPEG-4 AVC Video / 35822 kbps / 1080p / 23.976 fps / 16:9 / High Profile
Аудио 1: Русский | AC-3, 6 ch, 384 Kbps, 48.0 kHz
Аудио 2: Французский | DTS-HD MA, 6 ch, 3554 Kbps, 48.0 kHz, 24-bit (DTS Core: 5.1 / 48 kHz / 1509 kbps / 24-bit)
-

MediaInfo

Код:
General
Unique ID : 299528321057165481346253659380953870581 (0xE1570E67D0D614AF279F1F37247B70F5)
Complete name : /Volumes/Promise Pegasus/Chamboultout.BDRemux.1080p.pk.mkv
Format : Matroska
Format version : Version 4
File size : 28.2 GiB
Duration : 1 h 41 min
Overall bit rate mode : Variable
Overall bit rate : 39.8 Mb/s
Movie name : Chamboultout BDRemux 1080p pk
Encoded date : UTC 2021-01-02 12:37:31
Writing application : mkvmerge v51.0.0 ('I Wish') 64-bit
Writing library : libebml v1.4.0 + libmatroska v1.6.2
Video
ID : 1
Format : AVC
Format/Info : Advanced Video Codec
Format profile : High@L4.1
Format settings : CABAC / 3 Ref Frames
Format settings, CABAC : Yes
Format settings, Reference frames : 3 frames
Codec ID : V_MPEG4/ISO/AVC
Duration : 1 h 41 min
Bit rate mode : Variable
Bit rate : 36.0 Mb/s
Maximum bit rate : 39.0 Mb/s
Width : 1 920 pixels
Height : 1 080 pixels
Display aspect ratio : 16:9
Frame rate mode : Constant
Frame rate : 23.976 (24000/1001) FPS
Color space : YUV
Chroma subsampling : 4:2:0
Bit depth : 8 bits
Scan type : Progressive
Bits/(Pixel*Frame) : 0.724
Stream size : 25.4 GiB (90%)
Writing library : x264 core 146 r2538 121396c
Encoding settings : cabac=1 / ref=4 / deblock=1:-1:-1 / analyse=0x3:0x133 / me=umh / subme=10 / psy=1 / psy_rd=1.00:0.15 / mixed_ref=1 / me_range=24 / chroma_me=1 / trellis=2 / 8x8dct=1 / cqm=0 / deadzone=21,11 / fast_pskip=1 / chroma_qp_offset=-3 / threads=48 / lookahead_threads=4 / sliced_threads=0 / slices=4 / nr=0 / decimate=1 / interlaced=0 / bluray_compat=1 / constrained_intra=0 / bframes=3 / b_pyramid=1 / b_adapt=2 / b_bias=0 / direct=3 / weightb=1 / open_gop=1 / weightp=1 / keyint=24 / keyint_min=1 / scenecut=40 / intra_refresh=0 / rc_lookahead=24 / rc=2pass / mbtree=1 / bitrate=36000 / ratetol=1.0 / qcomp=0.60 / qpmin=0 / qpmax=69 / qpstep=4 / cplxblur=20.0 / qblur=0.5 / vbv_maxrate=39000 / vbv_bufsize=30000 / nal_hrd=vbr / filler=0 / ip_ratio=1.40 / aq=1:1.00
Language : French
Default : Yes
Forced : No
Color range : Limited
Color primaries : BT.709
Transfer characteristics : BT.709
Matrix coefficients : BT.709
Audio #1
ID : 2
Format : AC-3
Format/Info : Audio Coding 3
Commercial name : Dolby Digital
Codec ID : A_AC3
Duration : 1 h 41 min
Bit rate mode : Constant
Bit rate : 384 kb/s
Channel(s) : 6 channels
Channel layout : L R C LFE Ls Rs
Sampling rate : 48.0 kHz
Frame rate : 31.250 FPS (1536 SPF)
Compression mode : Lossy
Stream size : 278 MiB (1%)
Title : Russian MVO iTunes
Language : Russian
Service kind : Complete Main
Default : Yes
Forced : No
Audio #2
ID : 3
Format : DTS XLL
Format/Info : Digital Theater Systems
Commercial name : DTS-HD Master Audio
Codec ID : A_DTS
Duration : 1 h 41 min
Bit rate mode : Variable
Bit rate : 3 554 kb/s
Channel(s) : 6 channels
Channel layout : C L R Ls Rs LFE
Sampling rate : 48.0 kHz
Frame rate : 93.750 FPS (512 SPF)
Bit depth : 24 bits
Compression mode : Lossless
Stream size : 2.52 GiB (9%)
Title : French Original
Language : French
Default : No
Forced : No
Menu
00:00:00.000 : en:Chapter 01
00:07:43.337 : en:Chapter 02
00:17:40.225 : en:Chapter 03
00:29:26.139 : en:Chapter 04
00:37:02.720 : en:Chapter 05
00:45:06.036 : en:Chapter 06
00:53:41.760 : en:Chapter 07
01:00:34.255 : en:Chapter 08
01:09:31.667 : en:Chapter 09
01:21:36.266 : en:Chapter 10
01:29:09.969 : en:Chapter 11
01:36:54.183 : en:Chapter 12

Скриншоты

Профиль [ЛС]
Показать сообщения:    

Текущее время: 19-Янв 11:59

Часовой пояс: UTC ± 0



Вы не можете начинать темы
Вы не можете отвечать на сообщения
Вы не можете редактировать свои сообщения
Вы не можете удалять свои сообщения
Вы не можете голосовать в опросах
Вы не можете прикреплять файлы к сообщениям
Вы не можете скачивать файлы