MAGNAT ®

Пол:
Мужской
Стаж:
1 год 9 месяцев
Сообщений:
9230

Глубокое погружение / Ломая поверхность / Breaking Surface
Страна: Швеция, Норвегия, Бельгия
Жанр: Боевик,триллер, драма
Год выпуска: 2020
Продолжительность: 01:21:21
Перевод: Профессиональный (многоголосый) iTunes
Субтитры: русские, английские
Оригинальная аудиодорожка: немецкий
Режиссер: Йоахим Хеден / Joachim Hedén
В ролях: Муа Гаммель, Мадлен Мартин, Трине Вигген, Джитсе Джонатан Буитник, Реми Алашкар, Алессио Баррето, Има Дженни Холлберг, Лена Хоуп, Томас Хой, Эль Корс
Описание: Накануне Рождества две сестры Ида и Тува отправляются на зимний дайвинг. Но то, что должно было стать традиционным семейным развлечением превращается в отчаянную борьбу за выживание, когда одна из девушек оказывается в ловушке на глубине тридцати метров на дне океана. Кислород на исходе, связь потеряна, до ближайшего жилья километры заснеженной пустыни… Спасти друг друга можно только совершив невозможное.
Качество видео: BDRip 720p
Формат видео: MKV
Видео: MPEG-4 AVC, 1280x538, 4700 Kbit/s, 24.000 fps
Аудио: 48 kHz, AC3, 5.1, 384 Kbps | iTunes | Русский
Аудио 2: 48 kHz, AC3, 5.1, 640 Kbps | Оригинал | Германия
Субтитры: Русские, английские

MediaInfo

General
Unique ID : 12485863703810286959589114249628716713 (0x964B09BE6D36877683908D8F5998EA9)
Complete name : D:\Мой Торрент\Фильмы\Зарубежные фильмы\Breaking.Surface.2020.BDRip.720p.seleZen.mkv
Format : Matroska
Format version : Version 4
File size : 3.25 GiB
Duration : 1 h 21 min
Overall bit rate : 5 721 kb/s
Movie name : Breaking Surface 2020 from seleZen
Encoded date : UTC 2021-01-04 19:08:14
Writing application : mkvmerge v40.0.0 ('Old Town Road + Pony') 64-bit
Writing library : libebml v1.3.9 + libmatroska v1.5.2
Video
ID : 1
Format : AVC
Format/Info : Advanced Video Codec
Format profile : High@L4.1
Format settings : CABAC / 12 Ref Frames
Format settings, CABAC : Yes
Format settings, Reference fra : 12 frames
Codec ID : V_MPEG4/ISO/AVC
Duration : 1 h 21 min
Bit rate : 4 700 kb/s
Width : 1 280 pixels
Height : 538 pixels
Display aspect ratio : 2.40:1
Frame rate mode : Constant
Frame rate : 24.000 FPS
Color space : YUV
Chroma subsampling : 4:2:0
Bit depth : 8 bits
Scan type : Progressive
Bits/(Pixel*Frame) : 0.284
Stream size : 2.67 GiB (82%)
Writing library : x264 core 161 -from seleZen
Encoding settings : cabac=1 / ref=12 / deblock=1:-2:-2 / analyse=0x3:0x113 / me=umh / subme=10 / psy=1 / psy_rd=1.04:0.03 / mixed_ref=1 / me_range=32 / chroma_me=1 / trellis=2 / 8x8dct=1 / cqm=0 / deadzone=21,11 / fast_pskip=0 / chroma_qp_offset=-3 / threads=17 / lookahead_threads=2 / sliced_threads=0 / nr=0 / decimate=0 / interlaced=0 / bluray_compat=0 / constrained_intra=0 / bframes=9 / b_pyramid=2 / b_adapt=2 / b_bias=0 / direct=3 / weightb=1 / open_gop=0 / weightp=2 / keyint=240 / keyint_min=23 / scenecut=40 / intra_refresh=0 / rc_lookahead=40 / rc=2pass / mbtree=0 / bitrate=4700 / ratetol=1.0 / qcomp=0.60 / qpmin=0 / qpmax=51 / qpstep=4 / cplxblur=20.0 / qblur=0.5 / vbv_maxrate=50000 / vbv_bufsize=62000 / nal_hrd=none / filler=0 / ip_ratio=1.40 / pb_ratio=1.30 / aq=3:0.80
Language : English
Default : Yes
Forced : No
Audio #1
ID : 2
Format : AC-3
Format/Info : Audio Coding 3
Commercial name : Dolby Digital
Codec ID : A_AC3
Duration : 1 h 21 min
Bit rate mode : Constant
Bit rate : 384 kb/s
Channel(s) : 6 channels
Channel layout : L R C LFE Ls Rs
Sampling rate : 48.0 kHz
Frame rate : 31.250 FPS (1536 SPF)
Compression mode : Lossy
Stream size : 223 MiB (7%)
Title : iTunes
Language : Russian
Service kind : Complete Main
Default : Yes
Forced : Yes
Audio #2
ID : 3
Format : AC-3
Format/Info : Audio Coding 3
Commercial name : Dolby Digital
Codec ID : A_AC3
Duration : 1 h 21 min
Bit rate mode : Constant
Bit rate : 640 kb/s
Channel(s) : 6 channels
Channel layout : L R C LFE Ls Rs
Sampling rate : 48.0 kHz
Frame rate : 31.250 FPS (1536 SPF)
Compression mode : Lossy
Stream size : 372 MiB (11%)
Title : Original
Language : German
Service kind : Complete Main
Default : No
Forced : No
Text #1
ID : 4
Format : UTF-8
Codec ID : S_TEXT/UTF8
Codec ID/Info : UTF-8 Plain Text
Duration : 1 h 12 min
Bit rate : 42 b/s
Count of elements : 395
Stream size : 22.7 KiB (0%)
Title : Full
Language : Russian
Default : No
Forced : No
Text #2
ID : 5
Format : UTF-8
Codec ID : S_TEXT/UTF8
Codec ID/Info : UTF-8 Plain Text
Duration : 1 h 11 min
Bit rate : 30 b/s
Count of elements : 486
Stream size : 15.8 KiB (0%)
Title : Full
Language : English
Default : No
Forced : No
Menu
00:00:00.000 : de:Глава 01
00:04:33.000 : de:Глава 02
00:09:09.167 : de:Глава 03
00:16:26.583 : de:Глава 04
00:23:21.750 : de:Глава 05
00:29:55.000 : de:Глава 06
00:36:21.458 : de:Глава 07
00:44:17.083 : de:Глава 08
00:50:57.042 : de:Глава 09
00:56:54.958 : de:Глава 10
01:03:44.125 : de:Глава 11
01:10:09.667 : de:Глава 12
01:16:00.458 : de:Глава 13

Скриншот c названием фильма

Скриншоты

Профиль [ЛС]
Показать сообщения:    

Текущее время: 19-Янв 12:07

Часовой пояс: UTC ± 0



Вы не можете начинать темы
Вы не можете отвечать на сообщения
Вы не можете редактировать свои сообщения
Вы не можете удалять свои сообщения
Вы не можете голосовать в опросах
Вы не можете прикреплять файлы к сообщениям
Вы не можете скачивать файлы