MAGNAT ®

Пол:
Мужской
Стаж:
1 год 9 месяцев
Сообщений:
9230

Довод / Tenet
Страна: Великобритания, США
Жанр: боевик, фантастика
Год выпуска: 2020
Продолжительность: 02:30:09
Перевод: Авторский (одноголосый закадровый) Юрий Сербин
Субтитры: нет
Режиссер: Кристофер Нолан / Christopher Nolan
В ролях: Джон Вашингтон, Роберт Паттинсон, Элизабет Дебики, Кеннет Брана, Аарон Джонсон, Майкл Кейн, Химеш Патель, Юрий Колокольников
Описание: Агент ЦРУ получает допуск к секретному заданию, о предотвращении новой мировой войны, при этом, никакой информации по делу, кроме как секретного шифра «Довод», он не получает. Герою придется столкнуться с новым инверсивным оружием и озлобленными потомками, которые решили уничтожить будущее...
Качество видео: BDRip
Формат видео: AVI
Видео: XviD 73, 720x400, (16:9), 23,976 fps, 1609 Кбит/с, 8 бит, 0.23 bit/pixel
Аудио: Русский (АС3, 6 ch (Front: L C R, Side: L R, LFE), 48,0 KHz, 448 Kbps)

MediaInfo

Общее
Полное имя : D:\Фильмы на трекер\Довод (боевик, фантастика 2020 год).avi
Формат : AVI
Формат/Информация : Audio Video Interleave
Профиль формата : OpenDML
Размер файла : 2,17 Гбайт
Продолжительность : 2 ч. 30 м.
Общий поток : 2069 Кбит/сек
Программа кодирования : VirtualDubMod 1.5.10.2 (build 2540/release)
Библиотека кодирования : VirtualDubMod build 2540/release
Видео
Идентификатор : 0
Формат : MPEG-4 Visual
Профиль формата : Advanced Simple@L5
Параметр BVOP формата : 2
Параметр QPel формата : Нет
Параметр GMC формата : Без точки перехода
Параметр матрицы формата : Выборочная
Идентификатор кодека : XVID
Идентификатор кодека/Подсказка : XviD
Продолжительность : 2 ч. 30 м.
Битрейт : 1609 Кбит/сек
Ширина : 720 пикселей
Высота : 400 пикселей
Соотношение сторон : 16:9
Частота кадров : 23,976 (23976/1000) кадра/сек
Цветовое пространство : YUV
Субдискретизация насыщенности : 4:2:0
Битовая глубина : 8 бит
Тип развёртки : Прогрессивная
Метод сжатия : С потерями
Бит/(Пиксели*Кадры) : 0.233
Размер потока : 1,69 Гбайт (78%)
Библиотека кодирования : XviD 73
Аудио
Идентификатор : 1
Формат : AC-3
Формат/Информация : Audio Coding 3
Расширение режима : CM (complete main)
Параметр Endianness формата : Big
Идентификатор кодека : 2000
Продолжительность : 2 ч. 30 м.
Вид битрейта : Постоянный
Битрейт : 448 Кбит/сек
Каналы : 6 каналов
Расположение каналов : Front: L C R, Side: L R, LFE
Частота : 48,0 КГц
Частота кадров : 31,250 кадров/сек (1536 spf)
Метод сжатия : С потерями
Размер потока : 481 Мбайт (22%)
Выравнивание : Разделение по промежуткам
Продолжительность промежутка : 42 мс. (1,00 видеокадр)
Время предзагрузки промежутка : 500 мс.

Скриншот c названием фильма

Скриншоты

Профиль [ЛС]
Показать сообщения:    

Текущее время: 19-Янв 10:54

Часовой пояс: UTC ± 0



Вы не можете начинать темы
Вы не можете отвечать на сообщения
Вы не можете редактировать свои сообщения
Вы не можете удалять свои сообщения
Вы не можете голосовать в опросах
Вы не можете прикреплять файлы к сообщениям
Вы не можете скачивать файлы