Статистика раздачи
Размер:  1,46 GB   |    Зарегистрирован:  7 месяцев 18 дней   |    Скачан:  0 раз
Сидов:  1295  [  0 KB/s  ]   Личеров:  52  [  0 KB/s  ]  
 
     
 
 

Гость ®

Пол:
Не указан

Рождённый стать королем / The Kid Who Would Be King
«Зло будет наказано»
- Год выхода: 2019
Страна: Великобритания, США
Жанр: фэнтези, боевик, приключения, семейный
Продолжительность: 02:00:08
Перевод: Профессиональный (полное дублирование)
Субтитры: Русские (форсированные) (внешние *.srt)-Режиссер:
Джо Корниш / Joe Cornish-В ролях:
Луис Эшборн Серкис, Денис Гоф, Дин Чаму, Том Тейлор, Рианна Доррис, Нэйтан Стюарт-Джарретт, Нома Думезвени, Ребекка Фергюсон, Патрик Стюарт, Марк Боннар, Энгус Имри-О фильме:
Повседневные проблемы 12-летнего Алекса отходят на второй план после того, как он находит легендарный Экскалибур. И теперь, когда меч короля Артура оказывается в руках самого неудачливого подростка в Британии, начинается грандиозное приключение, в ходе которого Алекс и его друзья должны остановить злую средневековую волшебницу Моргану и не дать ей уничтожить мир.-Релиз групп | | IMDB | КиноПоиск | Сэмпл |-Качество: HDRip
Формат: AVI
Видео: 720x304 (2.37:1), 23.976 fps, XviD build 67 ~1351 kbps avg, 0.26 bit/pixel
Аудио: 48 kHz, AC3 Dolby Digital, 3/2 (L,C,R,l,r) + LFE ch, ~384.00 kbps avg - iTunes Russia-

Скриншоты

-

MediaInfo

Код:Полное имя : D:\Rozhdennyi_stat`_korolem_2019_HDRip_iT_by_Dalemake.avi
Формат : AVI
Формат/Информация : Audio Video Interleave
Размер файла : 1,46 Гбайт
Продолжительность : 2 ч. 0 м.
Общий поток : 1745 Кбит/сек
Программа кодирования : VirtualDubMod 1.5.10.3 | www.virtualdub-fr.org || (build 2550/release)
Библиотека кодирования : VirtualDubMod build 2550/release
Видео
Идентификатор : 0
Формат : MPEG-4 Visual
Профиль формата : Advanced Simple@L5
Параметр BVOP формата : 1
Параметр QPel формата : Нет
Параметр GMC формата : Без точки перехода
Параметр матрицы формата : Выборочная
Идентификатор кодека : XVID
Идентификатор кодека/Подсказка : XviD
Продолжительность : 2 ч. 0 м.
Битрейт : 1352 Кбит/сек
Ширина : 720 пикселей
Высота : 304 пикселя
Соотношение сторон : 2,35:1
Частота кадров : 23,976 кадра/сек
Цветовое пространство : YUV
Субдискретизация насыщенности : 4:2:0
Битовая глубина : 8 бит
Тип развёртки : Прогрессивная
Метод сжатия : С потерями
Бит/(Пиксели*Кадры) : 0.258
Размер потока : 1,13 Гбайт (77%)
Библиотека кодирования : XviD 67
Аудио
Идентификатор : 1
Формат : AC-3
Формат/Информация : Audio Coding 3
Расширение режима : CM (complete main)
Параметр Endianness формата : Big
Идентификатор кодека : 2000
Продолжительность : 2 ч. 0 м.
Вид битрейта : Постоянный
Битрейт : 384 Кбит/сек
Каналы : 6 каналов
Расположение каналов : Front: L C R, Side: L R, LFE
Частота : 48,0 КГц
Метод сжатия : С потерями
Размер потока : 330 Мбайт (22%)
Выравнивание : Разделение по промежуткам
Продолжительность промежутка : 42 мс. (1,00 видеокадр)
Время предзагрузки промежутка : 500 мс.
-
[cybertorrent.net].t2177.torrent 
Торрент: Зарегистрирован [ 2019-04-19 15:45 ] · A06BA934FEA13F6AB5083A055FBE08D0CAC11D15

Скачать .torrent

Скачать

15 KB

Статус: проверено
Скачан: 0 раз
Размер: 1,46 GB
terms.php
Показать сообщения:    

Текущее время: 07-Дек 19:51

Часовой пояс: UTC ± 0



Вы не можете начинать темы
Вы не можете отвечать на сообщения
Вы не можете редактировать свои сообщения
Вы не можете удалять свои сообщения
Вы не можете голосовать в опросах
Вы не можете прикреплять файлы к сообщениям
Вы можете скачивать файлы