Статистика раздачи
Размер:  4,65 GB   |    Зарегистрирован:  6 месяцев 24 дня   |    Скачан:  0 раз

Полного источника не было: Никогда

 
     
 
 

Гость ®

Пол:
Не указан

Под каблуком- > Год выпуска: 2014
> Производство: «Марс Медиа и Пантократор»
> Жанр: Комедия, мелодрама
> Продолжительность: ~ 49 мин.
> Субтитры: Отсутствуют-> Режиссер: Саша Кириенко-> В ролях: Илья Любимов, Татьяна Федоровская, Ольга Волкова, Владимир Меньшов, Екатерина Приморская, Анна Банщикова, Екатерина Вуличенко, Владимир Скворцов, Наталья Романычева, Кристина Пакарина, Софья Хилькова, Олег Мазуров, Олег Алмазов, Анастасия Шалонько, Артём Осипов, Сергей Беляев, Анастасия Бусыгина, Роман Македонский, Марианна Шульц и др.-> Описание: Жизнь рекламщика Кости выглядит успешной: работа приносит доход и удовлетворение, любимая женщина согласилась выйти замуж. Но все рушится в один момент: отец Кости умирает, и на его руках оказывается не только семейное дело – фирма-производитель женской обуви, но и беспомощные родственницы, привыкшие к тому, что их проблемы решает мужчина.
На роль "главы семейства" явно Костя не подходит: невесте Соне и дочке Марусе он не уделяет достаточно времени, с мамой общается мало, и еще меньше – с дочкой от первого брака. Семейным бизнесом не интересуется и в дела фирмы не вникает. Но трагедия заставляет его повзрослеть: Костя больше не плывет по течению, а находит в себе силы встать у руля компании и быть опорой для всех своих женщин...
-
> Релиз группы -> Все раздачи сериала
> Семпл
> Кино-Театр-> Качество: HDTVRip
> Формат: AVI
> Видео кодек: XviD
> Аудио кодек: AC3
> Видео: 720x400 (1.80:1), 25 fps, XviD build 73 ~1499 kbps avg, 0.21 bit/pixel
> Аудио: 48 kHz, AC3 Dolby Digital, 2/0 (L,R) ch, ~192.00 kbps avg

MediaInfo

Код:General
Complete name : D:\Под каблуком\Pod.kablukom.s01e01.2014.HDTVRip.RG.Russkie.serialy.avi
Format : AVI
Format/Info : Audio Video Interleave
File size : 600 MiB
Duration : 49mn 19s
Overall bit rate : 1 702 Kbps
Writing application : VirtualDubMod 1.5.10.3 | www.virtualdub-fr.org || (build 2550/release)
Writing library : VirtualDubMod build 2550/release
Video
ID : 0
Format : MPEG-4 Visual
Format profile : Advanced Simple@L5
Format settings, BVOP : 2
Format settings, QPel : No
Format settings, GMC : No warppoints
Format settings, Matrix : Custom
Codec ID : XVID
Codec ID/Hint : XviD
Duration : 49mn 19s
Bit rate : 1 500 Kbps
Width : 720 pixels
Height : 400 pixels
Display aspect ratio : 16:9
Frame rate : 25.000 fps
Color space : YUV
Chroma subsampling : 4:2:0
Bit depth : 8 bits
Scan type : Progressive
Compression mode : Lossy
Bits/(Pixel*Frame) : 0.208
Stream size : 529 MiB (88%)
Writing library : XviD 73
Audio
ID : 1
Format : AC-3
Format/Info : Audio Coding 3
Mode extension : CM (complete main)
Format settings, Endianness : Big
Codec ID : 2000
Duration : 49mn 19s
Bit rate mode : Constant
Bit rate : 192 Kbps
Channel(s) : 2 channels
Channel positions : Front: L R
Sampling rate : 48.0 KHz
Bit depth : 16 bits
Compression mode : Lossy
Stream size : 67.7 MiB (11%)
Alignment : Split accross interleaves
Interleave, duration : 40 ms (1.00 video frame)
Interleave, preload duration : 500 ms

Скриншоты








СравнениеСравнение с этой раздачей http://cybertorrent.ru/forum/viewtopic.php?t=4899319
http://screenshotcomparison.com/comparison/132547/picture:7
[cybertorrent.net].t2158.torrent 
Торрент: Зарегистрирован [ 2019-04-19 15:45 ] · FCEFE41BAFB5A60EBBE6205FAD38C4B8F8727E7B

Скачать .torrent

Скачать

24 KB

Статус: проверено
Скачан: 0 раз
Размер: 4,65 GB
terms.php
Показать сообщения:    

Текущее время: 14-Ноя 09:23

Часовой пояс: UTC ± 0



Вы не можете начинать темы
Вы не можете отвечать на сообщения
Вы не можете редактировать свои сообщения
Вы не можете удалять свои сообщения
Вы не можете голосовать в опросах
Вы не можете прикреплять файлы к сообщениям
Вы можете скачивать файлы