Статистика раздачи
Размер:  1,46 GB   |    Зарегистрирован:  6 месяцев 25 дней   |    Скачан:  0 раз
Сидов:  283  [  0 KB/s  ]   Личеров:  8  [  0 KB/s  ]  
 
     
 
 

солнышко ®

Пол:
Не указан
Стаж:
8 месяцев 1 день
Сообщений:
565

Власть / Vice- Год выхода: 2018
Страна: США
Производство: Annapurna Pictures
Жанр: драма, комедия, биография
Продолжительность: 02:12:27
Перевод: Профессиональный (полное дублирование)
Субтитры: нет-Режиссер:
Адам МакКей / Adam McKay-В ролях:
Кристиан Бэйл (Dick Cheney), Эми Адамс (Lynne Cheney), Стив Карелл (Donald Rumsfeld), Сэм Рокуэлл (George W. Bush), Элисон Пилл (Mary Cheney), Эдди Марсан (Paul Wolfowitz), Джастин Кирк (Scooter Libby), Лиза Гэй Хэмилтон (Condoleezza Rice), Джесси Племонс (Kurt), Билл Кэмп (Gerald Ford), Шей Уигэм (Wayne Vincent), Тайлер Перри (Colin Powell)-О фильме:
Когда миром управляют деньги и связи, один человек может получить безграничное влияние. Уникальный дар убеждения, незаурядный ум и доступ на самые высокие уровни власти позволили ему стать кукловодом среди сильных мира сего. Оставаясь теневым игроком, он навсегда изменил ход истории…-Релиз групп | | IMDB | КиноПоиск | Сэмпл |-Качество: BDRip [Vice.2018.1080p.Blu-ray.AVC.DTS-HD.MA.5.1-nLiBRA]
Формат: AVI
Видео: 720x304 (2.37:1), 23.976 fps, XviD build 67 ~1375 kbps avg, 0.26 bit/pixel
Аудио: 48 kHz, AC3 Dolby Digital, 2/0 (L,R) ch, ~192 kbps avg-

Скриншоты

-

MediaInfo

Код:Полное имя : D:\Vlast`_2018_BDRip_by_Dalemake.avi
Формат : AVI
Формат/Информация : Audio Video Interleave
Размер файла : 1,46 Гбайт
Продолжительность : 2 ч. 12 м.
Общий поток : 1577 Кбит/сек
Программа кодирования : VirtualDubMod 1.5.10.3 | www.virtualdub-fr.org || (build 2550/release)
Библиотека кодирования : VirtualDubMod build 2550/release
Видео
Идентификатор : 0
Формат : MPEG-4 Visual
Профиль формата : Advanced Simple@L5
Параметр BVOP формата : 1
Параметр QPel формата : Нет
Параметр GMC формата : Без точки перехода
Параметр матрицы формата : Выборочная
Идентификатор кодека : XVID
Идентификатор кодека/Подсказка : XviD
Продолжительность : 2 ч. 12 м.
Битрейт : 1376 Кбит/сек
Ширина : 720 пикселей
Высота : 304 пикселя
Соотношение сторон : 2,35:1
Частота кадров : 23,976 кадра/сек
Цветовое пространство : YUV
Субдискретизация насыщенности : 4:2:0
Битовая глубина : 8 бит
Тип развёртки : Прогрессивная
Метод сжатия : С потерями
Бит/(Пиксели*Кадры) : 0.262
Размер потока : 1,27 Гбайт (87%)
Библиотека кодирования : XviD 67
Аудио
Идентификатор : 1
Формат : AC-3
Формат/Информация : Audio Coding 3
Расширение режима : CM (complete main)
Параметр Endianness формата : Big
Идентификатор кодека : 2000
Продолжительность : 2 ч. 12 м.
Вид битрейта : Постоянный
Битрейт : 192 Кбит/сек
Каналы : 2 канала
Расположение каналов : Front: L R
Частота : 48,0 КГц
Метод сжатия : С потерями
Размер потока : 182 Мбайт (12%)
Выравнивание : Разделение по промежуткам
Продолжительность промежутка : 42 мс. (1,00 видеокадр)
Время предзагрузки промежутка : 500 мс.
-
[cybertorrent.net].t2153.torrent 
Торрент: Зарегистрирован [ 2019-04-18 17:27 ] · 034E61EF137D4FA230C79D8B5C3DE2C35556AAA5

Скачать .torrent

Скачать

15 KB

Статус: проверено
Скачан: 0 раз
Размер: 1,46 GB
terms.php
Профиль ЛС
Показать сообщения:    

Текущее время: 14-Ноя 06:46

Часовой пояс: UTC ± 0



Вы не можете начинать темы
Вы не можете отвечать на сообщения
Вы не можете редактировать свои сообщения
Вы не можете удалять свои сообщения
Вы не можете голосовать в опросах
Вы не можете прикреплять файлы к сообщениям
Вы можете скачивать файлы