Статистика раздачи
Нет
 
     
 
 

K15 ®

Пол:
Мужской
Стаж:
9 месяцев 5 дней
Сообщений:
192

Информация о фильме
Название: Агент Лев
Оригинальное название: Le lion
Год выхода: 2020
Жанр: Комедия
Режиссер: Людовик Кольбо-Жюстен
В ролях: Дани Бун, Филипп Катрин, Энни Серра, Самуэль Жуи, Софи Вербек, Кароль Брана, Бенуа Петре, Аксель Устун, Матью Ларду, Оливье Са

О фильме: Психиатр пытается понять, в чём проблема его нового пациента: тот утверждает, что он секретный шпион международного уровня по кличке Агент Лев. Но когда на глазах доктора похищают его невесту, ему ничего не остаётся, как обратиться за помощью к этому странному «спецагенту».
Страна: Франция, Бельгия
Студия: Monkey Pack Films, TF1 Studio, Pathé
Продолжительность: 01:35:23
Перевод: Дублированный | iTunes
Качество: WEB-DL 1080p
Видео: MPEG-4 AVC, 1920x806, 4572 Kbit/s, 24.000 fps
Аудио: 48 kHz, AC3, 5.1, 384 Kbps | iTunes | RUS |
Субтитры: Нет

Скриншоты

MI

General
Unique ID : 88083997750562134085039918587081546045 (0x42445C6337457F7572A2C81BD0E2593D)
Complete name : D:Video111Agent.Lion.2020.WEB-DL.1080p.seleZen.mkv
Format : Matroska
Format version : Version 4
File size : 3.30 GiB
Duration : 1 h 35 min
Overall bit rate : 4 958 kb/s
Movie name : Agent Lion 2020 from селезень
Encoded date : UTC 2020-10-05 18:04:07
Writing application : mkvmerge v40.0.0 ('Old Town Road + Pony') 64-bit
Writing library : libebml v1.3.9 + libmatroska v1.5.2
Video
ID : 1
Format : AVC
Format/Info : Advanced Video Codec
Format profile : High@L4
Format settings : CABAC / 5 Ref Frames
Format settings, CABAC : Yes
Format settings, Reference : 5 frames
Codec ID : V_MPEG4/ISO/AVC
Duration : 1 h 35 min
Bit rate : 4 572 kb/s
Width : 1 920 pixels
Height : 806 pixels
Display aspect ratio : 2.40:1
Frame rate mode : Constant
Frame rate : 24.000 FPS
Color space : YUV
Chroma subsampling : 4:2:0
Bit depth : 8 bits
Scan type : Progressive
Bits/(Pixel*Frame) : 0.123
Stream size : 3.05 GiB (92%)
Language : English
Default : Yes
Forced : No
Color range : Limited
Color primaries : BT.709
Transfer characteristics : BT.709
Matrix coefficients : BT.709
Audio
ID : 2
Format : AC-3
Format/Info : Audio Coding 3
Commercial name : Dolby Digital
Codec ID : A_AC3
Duration : 1 h 35 min
Bit rate mode : Constant
Bit rate : 384 kb/s
Channel(s) : 6 channels
Channel layout : L R C LFE Ls Rs
Sampling rate : 48.0 kHz
Frame rate : 31.250 FPS (1536 SPF)
Compression mode : Lossy
Stream size : 262 MiB (8%)
Title : iTunes
Language : Russian
Service kind : Complete Main
Default : Yes
Forced : No
Menu
00:00:00.000 : en:Глава 1
00:09:35.500 : en:Глава 2
00:17:02.958 : en:Глава 3
00:24:04.916 : en:Глава 4
00:30:52.291 : en:Глава 5
00:37:13.332 : en:Глава 6
00:43:58.290 : en:Глава 7
00:52:32.998 : en:Глава 8
00:59:39.498 : en:Глава 9
01:06:01.873 : en:Глава 10
01:11:52.831 : en:Глава 11
01:17:55.747 : en:Глава 12
01:23:14.038 : en:Глава 13
Релиз: Присоединяйся к:
Профиль [ЛС]
Показать сообщения:    

Текущее время: 28-Окт 19:29

Часовой пояс: UTC ± 0



Вы не можете начинать темы
Вы не можете отвечать на сообщения
Вы не можете редактировать свои сообщения
Вы не можете удалять свои сообщения
Вы не можете голосовать в опросах
Вы не можете прикреплять файлы к сообщениям
Вы не можете скачивать файлы