Статистика раздачи
Нет
 
     
 
 

K15 ®

Пол:
Мужской
Стаж:
9 месяцев 6 дней
Сообщений:
192

Информация о фильме
Название: И грянул гром
Оригинальное название: A Sound of Thunder
Год выхода: 2005
Жанр: фантастика, боевик, триллер, приключения
Режиссер: Питер Хайамс
В ролях: Эдвард Бёрнс, Катрин МакКормак, Бен Кингсли, Джемайма Рупер, Дэвид Ойелоуо, Армин Роде, Хайке Макач, Вильфрид Хохгольдингер, Август Цирнер, Элвин Ван Дер Куеч
О фильме: В недалеком будущем, путешествия во времени станут удивительной, непредсказуемой реальностью. За деньги, богатые путешественники могут пробудить свои дремлющие инстинкты охотников, заказывая доисторические сафари, чтобы охотиться на настоящих живых динозавров.
Есть только три важных правила, которые нельзя нарушать: не менять ничего в прошлом; не оставлять ничего там; и самое важное — ничего не брать с собой назад. Малейшее изменение могло бы привести к глобальному изменению эволюции способами, которые даже трудно представить.

Страна: Великобритания, США, Германия, Чехия
Студия: Franchise Pictures, Crusader Entertainment, ApolloMedia Distribution
Продолжительность: 01:41:47
Перевод: Профессиональный (дублированный) МОСФИЛЬМ-мастер
Субтитры: Русские, Английские
Файл
Кодек: x264
Формат: Matroska
Качество: WEB-DLRip-AVC | Open Matte | WEB-DL Amazon
Видео: High@L4.1, ~3163 kbps, 1024x576, 23.976 fps
Audio: AC3, 6ch, ~448 kbps
***Релиз от: -=DoMiNo=-
BDRip 1080p*****vs*****WEB-DL.Open Matte

M/I

x264 info: frame I:1549 Avg QP:16.44 size: 72849
x264 info: frame P:33750 Avg QP:17.49 size: 28991
x264 info: frame B:111141 Avg QP:19.78 size: 12393
x264 info: consecutive B-frames: 2.8% 3.5% 7.5% 33.5% 15.3% 24.8% 4.3% 3.6% 1.5% 0.8% 0.4% 0.6% 1.4%
General
Complete name : И грянул гром_(2005)_WEB-DLRIP-AVC_O.M_[-=DoMiNo=-].mkv
Format : Matroska
Format version : Version 4
File size : 2.62 GiB
Duration : 1 h 41 min
Overall bit rate : 3 685 kb/s
Movie name : И грянул гром
Attachments : poster.jpg
DATE : 2005-05-15
DIRECTOR : Peter Hyams
GENRE : триллер, фантастика, приключения, боевик
ORIGINAL_TITLE : A Sound of Thunder
PUBLISHER : Signature Pictures, Franchise Pictures, Crusader Entertainment, ApolloMedia Distribution, Baldwin Entertainment Group, Coco, Dante Entertainment, ETIC Films, Epsilon Motion Pictures, Film 111, Forge, Jericho Productions Ltd., MFF (Sound of Thunder), Matrix Film Finance, QI Quality International GmbH Co. KG, Scenario Lane Productions
RATING : 4.70
WRITER : Joshua Oppenheimer
Video
ID : 1
Format : AVC
Format/Info : Advanced Video Codec
Format profile : High@L4.1
Format settings : CABAC / 12 Ref Frames
Format settings, CABAC : Yes
Format settings, ReFrames : 12 frames
Codec ID : V_MPEG4/ISO/AVC
Duration : 1 h 41 min
Bit rate : 3 163 kb/s
Width : 1 024 pixels
Height : 576 pixels
Display aspect ratio : 16:9
Frame rate mode : Constant
Frame rate : 23.976 (24000/1001) FPS
Color space : YUV
Chroma subsampling : 4:2:0
Bit depth : 8 bits
Scan type : Progressive
Bits/(Pixel*Frame) : 0.224
Stream size : 2.25 GiB (86%)
Title : RIP_BY_-=DoMiNo=-
Writing library : x264 core 157 r2901M 7d0ff22
Encoding settings : cabac=1 / ref=12 / deblock=1:-3:-3 / analyse=0x3:0x133 / me=umh / subme=10 / psy=1 / psy_rd=1.00:0.00 / mixed_ref=1 / me_range=32 / chroma_me=1 / trellis=2 / 8x8dct=1 / cqm=0 / deadzone=21,11 / fast_pskip=0 / chroma_qp_offset=-2 / threads=6 / lookahead_threads=1 / sliced_threads=0 / nr=0 / decimate=1 / interlaced=0 / bluray_compat=0 / constrained_intra=0 / bframes=12 / b_pyramid=2 / b_adapt=2 / b_bias=0 / direct=1 / weightb=1 / open_gop=0 / weightp=2 / keyint=240 / keyint_min=24 / scenecut=40 / intra_refresh=0 / rc=crf / mbtree=0 / crf=19.0 / qcomp=0.70 / qpmin=0 / qpmax=69 / qpstep=4 / ip_ratio=1.40 / pb_ratio=1.30 / aq=3:0.80
Language : English
Default : Yes
Forced : No
Color range : Limited
Color primaries : BT.709
Transfer characteristics : BT.709
Matrix coefficients : BT.709
Audio
ID : 2
Format : AC-3
Format/Info : Audio Coding 3
Commercial name : Dolby Digital
Codec ID : A_AC3
Duration : 1 h 41 min
Bit rate mode : Constant
Bit rate : 448 kb/s
Channel(s) : 6 channels
Channel layout : L R C LFE Ls Rs
Sampling rate : 48.0 kHz
Frame rate : 31.250 FPS (1536 SPF)
Bit depth : 16 bits
Compression mode : Lossy
Stream size : 326 MiB (12%)
Title : DUB
Language : Russian
Service kind : Complete Main
Default : Yes
Forced : No
Text #1
ID : 3
Format : UTF-8
Codec ID : S_TEXT/UTF8
Codec ID/Info : UTF-8 Plain Text
Language : Russian
Default : Yes
Forced : No
Text #2
ID : 4
Format : UTF-8
Codec ID : S_TEXT/UTF8
Codec ID/Info : UTF-8 Plain Text
Language : English
Default : No
Forced : No
Menu
00:00:00.000 : :Глава 1
00:08:13.034 : :Глава 2
00:16:05.548 : :Глава 3
00:24:39.478 : :Глава 4
00:29:49.037 : :Глава 5
00:35:47.228 : :Глава 6
00:41:36.536 : :Глава 7
00:47:46.280 : :Глава 8
00:53:54.815 : :Глава 9
00:59:31.193 : :Глава 10
01:05:39.185 : :Глава 11
01:11:31.203 : :Глава 12
01:17:16.048 : :Глава 13
01:23:21.913 : :Глава 14
01:29:17.018 : :Глава 15
01:34:39.757 : :Глава 16

Скриншоты

Профиль [ЛС]
Показать сообщения:    

Текущее время: 28-Окт 19:47

Часовой пояс: UTC ± 0



Вы не можете начинать темы
Вы не можете отвечать на сообщения
Вы не можете редактировать свои сообщения
Вы не можете удалять свои сообщения
Вы не можете голосовать в опросах
Вы не можете прикреплять файлы к сообщениям
Вы не можете скачивать файлы