Статистика раздачи
Нет
 
     
 
 

K15 ®

Пол:
Мужской
Стаж:
9 месяцев 6 дней
Сообщений:
192

Информация о фильме
Название: Дверной замок
Оригинальное название: Doeorak
Год выхода: 2018
Жанр: триллер, детектив, криминал
Режиссер: Ли Гвон
В ролях: Кон Хё-джин, Ким Е-вон, Ким Сон-о, Чо Бон-нэ, Ли Га-соп, Хан Джи-ын, Чха Ёп, Юн Джон-сок, Ким Джэ-хва, Ли Чхон-хи
О фильме: Обычная банковская сотрудница Кён-мин живёт одна в квартире в многоквартирном доме. Каждое утро девушка встаёт с легким головокружением и однажды замечает странность - как будто её дверной замок кто-то открывает. Кён-мин сообщает в полицию, но там считают, что она преувеличивает, и для беспокойства повода нет. Вскоре на работе происходит неприятный инцидент - один из клиентов навязчиво зовёт на кофе, а после отказа начинает агрессивно себя вести.

Страна: Корея Южная
Студия: Fiona Films, Megabox Plus M
Продолжительность: 01:42:04
Перевод: Дублированный | iTunes
Файл
Формат: MKV
Качество: BDRip 720p
Видео: MPEG-4 AVC, 1280x536 (2, 40:1), 23,976 кадра/сек, 5741 Кбит/сек
Звук: 48 kHz, AC3 Dolby Digital, 3/2 (L, C, R, l, r) + LFE ch, ~384 kbps
Субтитры: Нет

MediaInfo

Общее
Уникальный идентификатор: 36330600318597599234324304341213142105 (0x1B5504E412A4C8D76EFF4B420FE85C59)
Полное имя: D:Door.Lock.2018.BDRip720p.mkv
Формат: Matroska
Версия формата: Version 4
Размер файла: 4, 37 Гбайт
Продолжительность: 1 ч. 42 м.
Общий поток: 6 125 Кбит/сек
Дата кодирования: UTC 2020-09-30 19:38:42
Программа кодирования: mkvmerge v50.0.0 ('Awakenings') 64-bit
Библиотека кодирования: libebml v1.4.0 + libmatroska v1.6.2
Видео
Идентификатор: 1
Формат: AVC
Формат/Информация: Advanced Video Codec
Профиль формата: High@L4.1
Настройки формата: CABAC / 12 Ref Frames
Параметр CABAC формата: Да
Параметр RefFrames формата: 12 кадров
Идентификатор кодека: V_MPEG4/ISO/AVC
Продолжительность: 1 ч. 42 м.
Битрейт: 5 741 Кбит/сек
Ширина: 1 280 пикселей
Высота: 536 пикселей
Соотношение сторон: 2, 40:1
Режим частоты кадров: Постоянный
Частота кадров: 23, 976 (24000/1001) кадра/сек
Цветовое пространство: YUV
Субдискретизация насыщенности: 4:2:0
Битовая глубина: 8 бит
Тип развёртки: Прогрессивная
Бит/(Пиксели*Кадры): 0.349
Размер потока: 4, 09 Гбайт (94%)
Библиотека кодирования: x264 core 152 r2851 ba24899
Настройки программы: cabac=1 / ref=12 / deblock=1:-2:-2 / analyse=0x3:0x133 / me=umh / subme=11 / psy=1 / psy_rd=1.00:0.00 / mixed_ref=1 / me_range=32 / chroma_me=1 / trellis=2 / 8x8dct=1 / cqm=0 / deadzone=21, 11 / fast_pskip=0 / chroma_qp_offset=-2 / threads=24 / lookahead_threads=6 / sliced_threads=0 / nr=0 / decimate=0 / interlaced=0 / bluray_compat=0 / constrained_intra=0 / bframes=12 / b_pyramid=2 / b_adapt=2 / b_bias=0 / direct=3 / weightb=1 / open_gop=0 / weightp=2 / keyint=240 / keyint_min=23 / scenecut=40 / intra_refresh=0 / rc_lookahead=40 / rc=2pass / mbtree=0 / bitrate=5741 / ratetol=1.0 / qcomp=0.60 / qpmin=0 / qpmax=69 / qpstep=4 / cplxblur=20.0 / qblur=0.5 / vbv_maxrate=50000 / vbv_bufsize=62500 / nal_hrd=none / filler=0 / ip_ratio=1.40 / pb_ratio=1.30 / aq=3:0.80
Язык: English
Default: Да
Forced: Нет
Аудио
Идентификатор: 2
Формат: AC-3
Формат/Информация: Audio Coding 3
Коммерческое название: Dolby Digital
Идентификатор кодека: A_AC3
Продолжительность: 1 ч. 42 м.
Вид битрейта: Постоянный
Битрейт: 384 Кбит/сек
Каналы: 6 каналов
Channel layout: L R C LFE Ls Rs
Частота: 48, 0 КГц
Частота кадров: 31, 250 кадров/сек (1536 SPF)
Метод сжатия: С потерями
Размер потока: 280 Мбайт (6%)
Заголовок: [DUB] DD 5.1 @ 384 kbps (iTunes)
Язык: Russian
Service kind: Complete Main
Default: Да
Forced: Нет
Меню
00:00:00.000: en:00:00:00.000
00:07:00.128: en:00:07:00.128
00:14:17.231: en:00:14:17.231
00:20:55.838: en:00:20:55.838
00:30:32.748: en:00:30:32.748
00:37:31.040: en:00:37:31.040
00:45:50.581: en:00:45:50.581
00:50:13.636: en:00:50:13.636
00:57:34.451: en:00:57:34.451
01:03:19.462: en:01:03:19.462
01:07:26.834: en:01:07:26.834
01:10:36.983: en:01:10:36.983
01:14:31.133: en:01:14:31.133
01:17:33.482: en:01:17:33.482
01:28:54.621: en:01:28:54.621
01:37:27.925: en:01:37:27.925
Профиль [ЛС]
Показать сообщения:    

Текущее время: 29-Окт 05:28

Часовой пояс: UTC ± 0



Вы не можете начинать темы
Вы не можете отвечать на сообщения
Вы не можете редактировать свои сообщения
Вы не можете удалять свои сообщения
Вы не можете голосовать в опросах
Вы не можете прикреплять файлы к сообщениям
Вы не можете скачивать файлы