Статистика раздачи
Размер:  9,63 GB   |    Зарегистрирован:  27 дней   |    Скачан:  0 раз
DL-List: Нет

Полного источника не было: Никогда

 
     
 
 

K15 ®

Пол:
Мужской
Стаж:
9 месяцев 6 дней
Сообщений:
192

Информация о фильме
Название: Игра родом из Англии
Оригинальное название: The English Game
Год выхода: 2020
Жанр: драма, история, спорт
Режиссер: Тим Файвелл, Биргитте Стэмозе
В ролях: Эдвард Холкрофт, Кевин Гатри, Шарлотта Хоуп, Ниам Уолш, Крэйг Паркинсон, Джеймс Харкнесс, Бен Бэтт, Джерард Кернс, Генри Ллойд-Хьюз, Керри Хэйес и др.
О фильме: «Игра родом из Англии» это основанная на реальных событиях, но не полностью историческая шестисерийная драма о происхождении современного футбола. Создателем проекта выступил известный британский аристократ, писатель, сценарист и режиссер Джулиан Феллоуз («Аббатство Даунтон»). Он взял несколько реальных персон, футбольных команд и ключевых игр, немного перетасовал факты, добавил художественного вымысла и через призму обожаемой миллионами зрителей игры показал, как может изменить ход истории одно только желание равенства и справедливости. Сериал может похвастаться колоритным изображением Англии конца XIX века, впечатляющим драматизмом событий, запоминающимися сильными персонажами и ориентацией не только на фанатов футбола, но и на широкий круг ценителей качественного британского телевизионного контента. Одну из главный ролей в драме исполняет звезда сериала «Террор» Кевин Гатри.
В 1870-х годах в Англии футбол был развлечением для богатых. Капитан и самый звездный игрок команды «Олд Итонианс», состоящей из выпускников престижного Итона, Артур Киннэрд (Эдвард Холкрофт) наслаждается статусом привилегированного футболиста и уверен в победе над клубом «Дарвен», созданном из представителей рабочего класса. Джеймс Уолш (Крейг Паркинсон), владелец «Дарвена» и связанной с ним ткацкой фабрики решает тайно заплатить двум шотландским игрокам Фергюсу Сутеру (Кевин Гатри) и Джимми Лаву (Джеймс Харкнесс), чтобы те помогли его ребятам завоевать Кубок Англии. Примерно в этой точке истории через многочисленные социальные и классовые конфликты начнется становление профессионального британского футбола. А пока на поле кипят нешуточные страсти, трибуны гудят, за кулисами плетутся интриги, а импозантный судья в котелке делает вид, что не замечает откровенных нарушений. Тем временем конфликт вышел далеко за пределы поля и распространился на всю классовую систему: рабочие отстаивают свои права на стачках и пикетах, а банкиры и фабриканты судорожно пытаются сохранить власть и авторитет. На какие жертвы готовы пойти чопорные джентльмены и уставшие от несправедливости работяги ради своей любви к футболу, статуса и будущего своих семей?

Страна: США
Студия: 42
Продолжительность: ~00:45:00 серия
Перевод: Профессиональный (многоголосый, закадровый) LostFilm
Файл
Качество: WEB-DL 1080p | The.English.Game.S01.1080p.NF.WEB-DL.DDP5.1.x264-GHOSTS
Формат: Matroska
Видео: 1920x1080 at 24.000 fps, MPEG-4 AVC, ~4800 kbps avg
Аудио: Russian: 48 kHz, AC3, 2/0 (L,R) ch, ~384 kbps avg |Многоголосый закадровый, LostFilm|
Субтитры: Russian (Forced)
***Примечание: Без рекламы

MediaInfo

Общее
Уникальный идентификатор : 192684425487195915369342802766596179529 (0x90F5ABA4FD36EF6C8F20E5F703008649)
Полное имя : The.English.Game.S01E01.mkv
Формат : Matroska
Версия формата : Version 2
Размер файла : 1,66 Гбайт
Продолжительность : 45 м. 46 с.
Режим общего битрейта : Переменный
Общий поток : 5181 Кбит/сек
Дата кодирования : UTC 2020-10-01 11:03:43
Программа кодирования : mkvmerge v5.8.0 ('No Sleep / Pillow') built on Sep 2 2012 15:37:04
Библиотека кодирования : libebml v1.2.3 + libmatroska v1.3.0
Видео
Идентификатор : 1
Формат : AVC
Формат/Информация : Advanced Video Codec
Профиль формата : Main@L4
Настройки формата : CABAC / 3 Ref Frames
Параметр CABAC формата : Да
Параметр RefFrames формата : 3 кадра
Идентификатор кодека : V_MPEG4/ISO/AVC
Продолжительность : 45 м. 46 с.
Вид битрейта : Переменный
Битрейт : 4870 Кбит/сек
Максимальный битрейт : 7305 Кбит/сек
Ширина : 1920 пикселей
Высота : 1080 пикселей
Соотношение сторон : 16:9
Режим частоты кадров : Постоянный
Частота кадров : 24,000 кадра/сек
Цветовое пространство : YUV
Субдискретизация насыщенности : 4:2:0
Битовая глубина : 8 бит
Тип развёртки : Прогрессивная
Бит/(Пиксели*Кадры) : 0.098
Размер потока : 1,50 Гбайт (91%)
Библиотека кодирования : x264 core 148 r2715 7e75228
Настройки программы : cabac=1 / ref=3 / deblock=1:0:0 / analyse=0x1:0x111 / me=umh / subme=10 / psy=1 / psy_rd=1.00:0.00 / mixed_ref=1 / me_range=24 / chroma_me=1 / trellis=2 / 8x8dct=0 / cqm=0 / deadzone=21,11 / fast_pskip=1 / chroma_qp_offset=-2 / threads=8 / lookahead_threads=1 / sliced_threads=0 / nr=0 / decimate=1 / interlaced=0 / bluray_compat=0 / stitchable=1 / constrained_intra=0 / bframes=2 / b_pyramid=0 / b_adapt=2 / b_bias=0 / direct=3 / weightb=1 / open_gop=0 / weightp=2 / keyint=250 / keyint_min=24 / scenecut=0 / intra_refresh=0 / rc_lookahead=48 / rc=2pass / mbtree=1 / bitrate=4870 / ratetol=1.0 / qcomp=0.50 / qpmin=6 / qpmax=51 / qpstep=4 / cplxblur=20.0 / qblur=0.5 / vbv_maxrate=7305 / vbv_bufsize=9740 / nal_hrd=vbr / filler=0 / ip_ratio=1.40 / aq=1:1.00
Язык : English
Default : Да
Forced : Нет
Аудио
Идентификатор : 2
Формат : AC-3
Формат/Информация : Audio Coding 3
Коммерческое название : Dolby Digital
Идентификатор кодека : A_AC3
Продолжительность : 45 м. 46 с.
Вид битрейта : Постоянный
Битрейт : 384 Кбит/сек
Каналы : 2 канала
ChannelLayout : L R
Частота : 48,0 КГц
Частота кадров : 31,250 кадров/сек (1536 SPF)
Метод сжатия : С потерями
Размер потока : 126 Мбайт (7%)
Заголовок : LostFilm
Язык : Russian
ServiceKind/String : Complete Main
Default : Да
Forced : Нет

Скриншоты

[cybertorrent.net].t21501.torrent 
Торрент: Зарегистрирован [ 2020-10-01 12:45 ] · CCF3774399A2950CCE7D61223D367528B218621D

Скачать .torrent

Скачать

25 KB

Статус: проверено
Скачан: 0 раз
Размер: 9,63 GB  ·  Тип торрента
terms.php
Профиль [ЛС]
Показать сообщения:    

Текущее время: 28-Окт 19:33

Часовой пояс: UTC ± 0



Вы не можете начинать темы
Вы не можете отвечать на сообщения
Вы не можете редактировать свои сообщения
Вы не можете удалять свои сообщения
Вы не можете голосовать в опросах
Вы не можете прикреплять файлы к сообщениям
Вы можете скачивать файлы