Статистика раздачи
Нет
 
     
 
 

MAGNAT ®

Пол:
Мужской
Стаж:
1 год 7 месяцев
Сообщений:
9064

Злоупотребление / Лотерея / La Riffa
Страна: Италия
Жанр: драма
Год выпуска: 1991
Продолжительность: 01:25:02
Перевод: Одноголосый закадровый - Альтера Парс (Леонид Машинский)
Субтитры: английские
Оригинальная аудиодорожка: итальянский
Режиссер: Франческо Лаудадио / Francesco Laudadio
В ролях: Моника Беллуччи, Джулио Скарпати, Массимо Гини, Елена Кантароне, Карла Кассола, Сандра Коллодел, Паоло Бусири Вичи Д’Арчевия, Паоло Де Вита, Роберто Делла Каза, Барбара Кристина Энгельхардт
Описание: Франческа, молодая итальянская мещанка, которая только что потеряла мужа, обязана продавать все имущество, в том числе одежду и драгоценности, чтобы оплатить долги мужа и заботиться о дочке ... Но распродажа не решает всех проблем и тогда женщина решает устроить лотерею, главным призом которой будет она сама.--Тип релиза: WEB-DL 1080p
Контейнер: MKV
Видео: 1792x1080 (1.667), 25.000 fps, AVC, ~10000 Kbps, 0.207 bits/pixel
Аудио 1: Russian, 48.0 KHz, AC3, 2 ch, 192 Kbps - VO Альтера Парс (Леонид Машинский)
Аудио 2: Italian, 48.0 KHz, AC3+, 2 ch, 224 Kbps - Original
Формат субтитров: softsub (SRT)

MediaInfo

Общее
Уникальный идентификатор : 242278255349972173359525695740213414858 (0xB645183D4ABCD636991569BE12B74BCA)
Полное имя : X:\Мои раздачи HD_3\La.Riffa.1991.WEB-DL.1080p.mkv
Формат : Matroska
Версия формата : Version 4
Размер файла : 6,04 Гбайт
Продолжительность : 1 ч. 25 м.
Общий поток : 10,2 Мбит/сек
Название фильма : La.Riffa.1991.WEB-DL.1080p_AllFilms_teko
Дата кодирования : UTC 2020-09-15 16:30:41
Программа кодирования : mkvmerge v9.5.0 ('Quiet Fire') 64bit
Библиотека кодирования : libebml v1.3.4 + libmatroska v1.4.5
Обложка : Yes
Attachments : La.Riffa.1991_Italian.Poster.jpg / La.Riffa.1991_Poster.jpg / La.Riffa.1991_Spanish.Poster.jpg / La.Riffa.1991_Italian.DVD.Cover.jpg / La.Riffa.1991_Spanish.DVD.Cover.jpg / La.Riffa.1991_Russian.DVD.Cover.png
Видео
Идентификатор : 1
Формат : AVC
Формат/Информация : Advanced Video Codec
Профиль формата : High@L4
Настройки формата : CABAC / 4 Ref Frames
Параметр CABAC формата : Да
Параметр RefFrames формата : 4 кадра
Идентификатор кодека : V_MPEG4/ISO/AVC
Продолжительность : 1 ч. 25 м.
Вид битрейта : Постоянный
Битрейт : 10000 Кбит/сек
Ширина : 1792 пикселя
Высота : 1080 пикселей
Соотношение сторон : 5:3
Режим частоты кадров : Постоянный
Частота кадров : 25,000 кадров/сек
Цветовое пространство : YUV
Субдискретизация насыщенности : 4:2:0
Битовая глубина : 8 бит
Тип развёртки : Прогрессивная
Бит/(Пиксели*Кадры) : 0.207
Размер потока : 5,78 Гбайт (96%)
Заголовок : La.Riffa.1991.WEB-DL.1080p
Язык : English
Default : Да
Forced : Нет
Цветовой диапазон : Limited
Основные цвета : BT.709
Характеристики трансфера : BT.709
Коэффициенты матрицы : BT.709
Аудио #1
Идентификатор : 2
Формат : AC-3
Формат/Информация : Audio Coding 3
Коммерческое название : Dolby Digital
Идентификатор кодека : A_AC3
Продолжительность : 1 ч. 25 м.
Вид битрейта : Постоянный
Битрейт : 192 Кбит/сек
Каналы : 2 канала
ChannelLayout : L R
Частота : 48,0 КГц
Частота кадров : 31,250 кадров/сек (1536 SPF)
Метод сжатия : С потерями
Размер потока : 117 Мбайт (2%)
Заголовок : VO Альтера Парс (Леонид Машинский)
Язык : Russian
ServiceKind/String : Complete Main
Default : Да
Forced : Нет
Аудио #2
Идентификатор : 3
Формат : E-AC-3
Формат/Информация : Enhanced AC-3
Коммерческое название : Dolby Digital Plus
Идентификатор кодека : A_EAC3
Продолжительность : 1 ч. 25 м.
Вид битрейта : Постоянный
Битрейт : 224 Кбит/сек
Каналы : 2 канала
ChannelLayout : L R
Частота : 48,0 КГц
Частота кадров : 31,250 кадров/сек (1536 SPF)
Метод сжатия : С потерями
Размер потока : 136 Мбайт (2%)
Заголовок : Original
Язык : Italian
ServiceKind/String : Complete Main
Default : Нет
Forced : Нет
Текст #1
Идентификатор : 4
Формат : UTF-8
Идентификатор кодека : S_TEXT/UTF8
Идентификатор кодека/Информация : UTF-8 Plain Text
Продолжительность : 1 ч. 23 м.
Битрейт : 55 бит/сек
ElementCount : 964
Размер потока : 33,9 Кбайт (0%)
Заголовок : English USA
Язык : English
Default : Нет
Forced : Нет
Текст #2
Идентификатор : 5
Формат : UTF-8
Идентификатор кодека : S_TEXT/UTF8
Идентификатор кодека/Информация : UTF-8 Plain Text
Продолжительность : 1 ч. 23 м.
Битрейт : 55 бит/сек
ElementCount : 964
Размер потока : 33,9 Кбайт (0%)
Заголовок : English UK
Язык : English
Default : Нет
Forced : Нет
Текст #3
Идентификатор : 6
Формат : UTF-8
Идентификатор кодека : S_TEXT/UTF8
Идентификатор кодека/Информация : UTF-8 Plain Text
Продолжительность : 1 ч. 23 м.
Битрейт : 55 бит/сек
ElementCount : 964
Размер потока : 33,9 Кбайт (0%)
Заголовок : English USA SDH
Язык : English
Default : Нет
Forced : Нет
Текст #4
Идентификатор : 7
Формат : UTF-8
Идентификатор кодека : S_TEXT/UTF8
Идентификатор кодека/Информация : UTF-8 Plain Text
Продолжительность : 1 ч. 23 м.
Битрейт : 55 бит/сек
ElementCount : 964
Размер потока : 33,9 Кбайт (0%)
Заголовок : English UK SDH
Язык : English
Default : Нет
Forced : Нет
Профиль [ЛС]
Показать сообщения:    

Текущее время: 28-Окт 19:51

Часовой пояс: UTC ± 0



Вы не можете начинать темы
Вы не можете отвечать на сообщения
Вы не можете редактировать свои сообщения
Вы не можете удалять свои сообщения
Вы не можете голосовать в опросах
Вы не можете прикреплять файлы к сообщениям
Вы не можете скачивать файлы