Статистика раздачи
Нет
 
     
 
 

MAGNAT ®

Пол:
Мужской
Стаж:
1 год 7 месяцев
Сообщений:
9064

Явление / Fatima
-
Страна: Португалия, США
Жанр: Драма
Год выпуска: 2020
Продолжительность: 01:53:19-Перевод: Профессиональный (дублированный) | (iTunes)
Cубтитры: Английские
Оригинальная аудиодорожка: Английский-Режиссёр: Марко Понтекорво / Marco Pontecorvo
В ролях: Эстефания Джил, Лусия Монис, Горан Вишнич, Харви Кейтель, Соня Брага, Хорхе Ламелас, Алехандра Ховард, Марко Де Альмейда, Жуана Рибейру, Жоаки де Алмейда
Описание: 1917 год. Европа в огне Первой мировой войны. Близ португальского местечка Фатима трем детям-пастушкам является Дева Мария и открывает им три тайны о судьбах мира и России…-Тип релиза: WEB-DL 1080p
Контейнер: MKV-Видео: AVC/H.264, 1920x1080, 5478 Kbps, 23.976 fps
Аудио 1: Русский | AC-3, 6 ch, 384 Kbps, 48.0 kHz
Аудио 2: Английский | AC-3, 6 ch, 384 Kbps, 48.0 kHz
-

MediaInfo

Код:
General
Unique ID : 93681716498599150943430517459006800352 (0x467A713AE03A531DC93EAB2327D041E0)
Complete name : /Volumes/Promise Pegasus/Fatima.WEB-DL.1080p.mkv
Format : Matroska
Format version : Version 4
File size : 4.95 GiB
Duration : 1 h 53 min
Overall bit rate : 6 249 kb/s
Movie name : Fatima WEB-DL 1080p
Encoded date : UTC 2020-09-17 10:36:09
Writing application : mkvmerge v49.0.0 ('Sick Of Losing Soulmates') 64-bit
Writing library : libebml v1.4.0 + libmatroska v1.6.1
Cover : Yes
Attachments : small_cover.jpg / small_cover_land.jpg / cover.jpg / cover_land.jpg
Video
ID : 1
Format : AVC
Format/Info : Advanced Video Codec
Format profile : High@L4
Format settings : CABAC / 2 Ref Frames
Format settings, CABAC : Yes
Format settings, Reference frames : 2 frames
Codec ID : V_MPEG4/ISO/AVC
Duration : 1 h 53 min
Bit rate : 5 478 kb/s
Width : 1 920 pixels
Height : 1 080 pixels
Display aspect ratio : 16:9
Frame rate mode : Constant
Frame rate : 23.976 (24000/1001) FPS
Color space : YUV
Chroma subsampling : 4:2:0
Bit depth : 8 bits
Scan type : Progressive
Bits/(Pixel*Frame) : 0.110
Stream size : 4.34 GiB (88%)
Writing library : x264 core 155 r2901 7d0ff22
Language : English
Default : Yes
Forced : No
Color range : Limited
Color primaries : BT.709
Transfer characteristics : BT.709
Matrix coefficients : BT.709
Audio #1
ID : 2
Format : AC-3
Format/Info : Audio Coding 3
Commercial name : Dolby Digital
Codec ID : A_AC3
Duration : 1 h 53 min
Bit rate mode : Constant
Bit rate : 384 kb/s
Channel(s) : 6 channels
Channel layout : L R C LFE Ls Rs
Sampling rate : 48.0 kHz
Frame rate : 31.250 FPS (1536 SPF)
Compression mode : Lossy
Stream size : 311 MiB (6%)
Title : Russian Dub iTunes
Language : Russian
Service kind : Complete Main
Default : Yes
Forced : No
Audio #2
ID : 3
Format : AC-3
Format/Info : Audio Coding 3
Commercial name : Dolby Digital
Codec ID : A_AC3
Duration : 1 h 53 min
Bit rate mode : Constant
Bit rate : 384 kb/s
Channel(s) : 6 channels
Channel layout : L R C LFE Ls Rs
Sampling rate : 48.0 kHz
Frame rate : 31.250 FPS (1536 SPF)
Compression mode : Lossy
Stream size : 311 MiB (6%)
Title : English Original
Language : English
Service kind : Complete Main
Default : No
Forced : No
Text
ID : 4
Format : UTF-8
Codec ID : S_TEXT/UTF8
Codec ID/Info : UTF-8 Plain Text
Duration : 1 h 47 min
Bit rate : 42 b/s
Count of elements : 1082
Stream size : 33.4 KiB (0%)
Title : English full
Language : English
Default : No
Forced : No

Скриншоты

Профиль [ЛС]
Показать сообщения:    

Текущее время: 29-Окт 05:23

Часовой пояс: UTC ± 0



Вы не можете начинать темы
Вы не можете отвечать на сообщения
Вы не можете редактировать свои сообщения
Вы не можете удалять свои сообщения
Вы не можете голосовать в опросах
Вы не можете прикреплять файлы к сообщениям
Вы не можете скачивать файлы