Статистика раздачи
Нет
 
     
 
 

MAGNAT ®

Пол:
Мужской
Стаж:
1 год 7 месяцев
Сообщений:
9064

Коллекторы 2 / The Debt Collector 2
-
Страна: США
Жанр: Боевик, криминал, комедия
Год выпуска: 2020
Продолжительность: 01:37:24-Перевод: Профессиональный (дублированный) | (iTunes)
Cубтитры: Русские (Full-length iTunes), Английские (SDH)
Оригинальная аудиодорожка: Английский-Режиссёр: Джесси Джонсон / Jesse Johnson
В ролях: Скотт Эдкинс, Луис Мэндилор, Владимир Кулих, Нг Мэйлин, Мариано Мендоса, Катрин Блэк, Демитра Сили, Ски Карр, Куэто Йеска, Robert Dobson
Описание: Сборщики долгов Френч и Сью приступают к работе, делая то, что у них получается лучше всего — ломают черепа и кости, гоняясь за разными подонками, которые должны деньги их боссу Томми. Напарников вызывают в Лас-Вегас, чтобы они забрали долг у нечистой на руку владелицы казино, которая, как оказалось, является бывшей любовницей Сью. Тем временем на тропу войны выходит наркобарон, жаждущий убить Фрэнчи и Сью и тем самым отомстить за смерть брата.-Тип релиза: BDRemux 1080p
Контейнер: MKV-Видео: AVC/H.264, 1920x1080, 22158 kbps, 23.976 fps
Аудио 1: Русский | AC-3, 6 ch, 384 Kbps, 48.0 kHz
Аудио 2: Английский | DTS-HD MA, 6 ch, 1651 Kbps, 48.0 kHz, 16-bit (DTS Core: 5.1 / 48 kHz / 768 kbps / 16-bit)
-

MediaInfo

Код:
General
Unique ID : 144994553205922340655210705079898836442 (0x6D14EF67E7FF67868162791037198DDA)
Complete name : /Users/imac/Download-BIGBOY/The.Debt.Collector.2.BDRemux.1080p.mkv
Format : Matroska
Format version : Version 4
File size : 16.5 GiB
Duration : 1 h 37 min
Overall bit rate mode : Variable
Overall bit rate : 24.2 Mb/s
Movie name : The Debt Collector 2 BDRemux 1080p
Encoded date : UTC 2020-09-17 21:45:04
Writing application : mkvmerge v49.0.0 ('Sick Of Losing Soulmates') 64-bit
Writing library : libebml v1.4.0 + libmatroska v1.6.1
Video
ID : 1
Format : AVC
Format/Info : Advanced Video Codec
Format profile : High@L4.1
Format settings : CABAC / 2 Ref Frames
Format settings, CABAC : Yes
Format settings, Reference frames : 2 frames
Codec ID : V_MPEG4/ISO/AVC
Duration : 1 h 37 min
Bit rate mode : Variable
Bit rate : 22.2 Mb/s
Maximum bit rate : 30.2 Mb/s
Width : 1 920 pixels
Height : 1 080 pixels
Display aspect ratio : 16:9
Frame rate mode : Constant
Frame rate : 23.976 (24000/1001) FPS
Color space : YUV
Chroma subsampling : 4:2:0
Bit depth : 8 bits
Scan type : Progressive
Bits/(Pixel*Frame) : 0.446
Stream size : 15.1 GiB (92%)
Language : English
Default : Yes
Forced : No
Audio #1
ID : 2
Format : AC-3
Format/Info : Audio Coding 3
Commercial name : Dolby Digital
Codec ID : A_AC3
Duration : 1 h 37 min
Bit rate mode : Constant
Bit rate : 384 kb/s
Channel(s) : 6 channels
Channel layout : L R C LFE Ls Rs
Sampling rate : 48.0 kHz
Frame rate : 31.250 FPS (1536 SPF)
Compression mode : Lossy
Stream size : 267 MiB (2%)
Title : Russian Dub iTunes
Language : Russian
Service kind : Complete Main
Default : Yes
Forced : No
Audio #2
ID : 3
Format : DTS XLL
Format/Info : Digital Theater Systems
Commercial name : DTS-HD Master Audio
Codec ID : A_DTS
Duration : 1 h 37 min
Bit rate mode : Variable
Bit rate : 1 651 kb/s
Channel(s) : 6 channels
Channel layout : C L R Ls Rs LFE
Sampling rate : 48.0 kHz
Frame rate : 93.750 FPS (512 SPF)
Bit depth : 16 bits
Compression mode : Lossless
Stream size : 1.12 GiB (7%)
Title : English Original
Language : English
Default : No
Forced : No
Text #1
ID : 4
Format : UTF-8
Codec ID : S_TEXT/UTF8
Codec ID/Info : UTF-8 Plain Text
Duration : 1 h 33 min
Bit rate : 111 b/s
Count of elements : 1759
Stream size : 76.4 KiB (0%)
Title : Russian full
Language : Russian
Default : No
Forced : No
Text #2
ID : 5
Format : UTF-8
Codec ID : S_TEXT/UTF8
Codec ID/Info : UTF-8 Plain Text
Duration : 1 h 32 min
Bit rate : 84 b/s
Count of elements : 1743
Stream size : 57.0 KiB (0%)
Title : English SDH
Language : English
Default : No
Forced : No
Menu
00:00:00.000 : en:Глава 01
00:07:26.279 : en:Глава 02
00:19:40.805 : en:Глава 03
00:29:06.411 : en:Глава 04
00:35:54.069 : en:Глава 05
00:44:08.646 : en:Глава 06
00:49:22.793 : en:Глава 07
00:53:32.709 : en:Глава 08
01:06:05.753 : en:Глава 09
01:17:02.409 : en:Глава 10
01:29:06.466 : en:Глава 11
01:33:40.281 : en:Глава 12

Скриншоты

Профиль [ЛС]
Показать сообщения:    

Текущее время: 28-Окт 19:31

Часовой пояс: UTC ± 0



Вы не можете начинать темы
Вы не можете отвечать на сообщения
Вы не можете редактировать свои сообщения
Вы не можете удалять свои сообщения
Вы не можете голосовать в опросах
Вы не можете прикреплять файлы к сообщениям
Вы не можете скачивать файлы