Статистика раздачи
Нет
 
     
 
 

MAGNAT ®

Пол:
Мужской
Стаж:
1 год 7 месяцев
Сообщений:
9064

Изгоняющий дьявола: Абаддон / The Assent
Страна: Израиль, США, Великобритания
Жанр: ужасы, триллер
Год выпуска: 2019
Продолжительность: 01:24:09-Перевод: Профессиональный (дублированный) iTunes
Субтитры: русские
Оригинальная аудиодорожка: английский-Режиссер: Пирри Реджинальд Тео / Pearry Reginald Teo-В ролях: Роберт Казински, Питер Джейсон, Флоренс Фэйвр, Кэйден Драгомер, Ханна Уорд, Дуглас Спэйн, Меган Генри, Эйлин Дитц, Маргарита Рейес
Описание: Одержимость демоном проходит три стадии: присутствие - злая сущность обозначает своё присутствие, болезнь - захват тела жертвы, согласие - одержимый сдаётся, и его душа становится частью демона.
После смерти жены Джоэл остался с маленьким сыном Мэйсоном. Работу в его глухомани найти непросто, и ситуация осложняется ещё и тем, что мужчина страдает шизофренией. Он регулярно посещает психолога и принимает лекарства, но тем не менее постоянно видит тёмные фигуры и тени. Вскоре и Мэйсон начинает утверждать, что в их доме обитает какой-то страшный мужчина с несколькими лицами. Джоэл опасается, что болезнь передалась сыну, но вызванный встревоженной няней священник уверен - к семье подкрался могущественный демон.-Тип релиза: BDRemux 1080i
Контейнер: MKV-Видео: 1920x1080i (16:9), 25 fps, AVC MPEG-4 (x264), High@L4.1, ~ 20811 kbps, 0.401 bit/pixel-Аудио 1: Russian: 48 kHz, AC3, 3/2 (L,C,R,l,r) + LFE ch, ~384 kbps avg / 16-bit
Аудио 2: English: 48 kHz/16-bit, DTS-HD MA 5.1 , ~1920 kbps avg (DTS Core: 5.1 / 48 kHz / 1509 kbps / 16-bit)

MediaInfo

Общее
Уникальный идентификатор : 323043782855769120809000164881109834092 (0xF307F82F83925C775550071AAEFF596C)
Полное имя : D:\The.Assent.2019.Remux.1080i.mkv
Формат : Matroska
Версия формата : Version 4 / Version 2
Размер файла : 13,6 Гбайт
Продолжительность : 1 ч. 24 м.
Общий поток : 23,1 Мбит/сек
Дата кодирования : UTC 2020-09-21 09:45:07
Программа кодирования : mkvmerge v37.0.0 ('Leave It') 64-bit
Библиотека кодирования : libebml v1.3.9 + libmatroska v1.5.2
Видео
Идентификатор : 1
Формат : AVC
Формат/Информация : Advanced Video Codec
Профиль формата : High@L4.1
Параметр CABAC формата : Да
Параметр RefFrames формата : 4 кадра
Идентификатор кодека : V_MPEG4/ISO/AVC
Продолжительность : 1 ч. 24 м.
Вид битрейта : Постоянный
Битрейт : 20,8 Мбит/сек
Номинальный битрейт : 22,0 Мбит/сек / 22,0 Мбит/сек
Ширина : 1920 пикселей
Высота : 1080 пикселей
Соотношение сторон : 16:9
Режим частоты кадров : Постоянный
Частота кадров : 25,000 кадров/сек
Стандарт вещания : Component
Цветовое пространство : YUV
Субдискретизация насыщенности : 4:2:0
Битовая глубина : 8 бит
Тип развёртки : MBAFF
Метод сохранения типа развёртки : Чередующиеся поля
Порядок развёртки : Верхнее поле первое
Бит/(Пиксели*Кадры) : 0.401
Размер потока : 12,2 Гбайт (90%)
Библиотека кодирования : x264 core 155
Настройки программы : cabac=1 / ref=4 / deblock=1:0:0 / analyse=0x3:0x113 / me=dia / subme=2 / psy=1 / psy_rd=1.00:0.00 / mixed_ref=0 / me_range=16 / chroma_me=1 / trellis=0 / 8x8dct=1 / cqm=1 / deadzone=21,11 / fast_pskip=1 / chroma_qp_offset=0 / threads=12 / lookahead_threads=4 / sliced_threads=0 / slices=4 / nr=0 / decimate=1 / interlaced=tff / minigop=1 / stitchable=1 / constrained_intra=0 / bframes=2 / b_pyramid=0 / b_adapt=1 / b_bias=0 / direct=1 / weightb=1 / open_gop=1 / weightp=0 / keyint=25 / keyint_min=1 / scenecut=40 / intra_refresh=0 / rc_lookahead=10 / rc=cbr / mbtree=1 / bitrate=22000 / ratetol=1.0 / qcomp=0.60 / qpmin=1 / qpmax=69 / qpstep=4 / vbv_maxrate=22000 / vbv_bufsize=22000 / nal_hrd=cbr / filler=1 / ip_ratio=1.40 / aq=1:1.00
Язык : Italian
Default : Да
Forced : Нет
Цветовой диапазон : Limited
Основные цвета : BT.709
Характеристики трансфера : BT.709
Коэффициенты матрицы : BT.709
Аудио #1
Идентификатор : 2
Формат : AC-3
Формат/Информация : Audio Coding 3
Параметр Endianness формата : Big
Идентификатор кодека : A_AC3
Продолжительность : 1 ч. 24 м.
Вид битрейта : Постоянный
Битрейт : 384 Кбит/сек
Каналы : 6 каналов
Расположение каналов : Front: L C R, Side: L R, LFE
Частота : 48,0 КГц
Частота кадров : 31,250 кадров/сек (1536 SPF)
Битовая глубина : 16 бит
Метод сжатия : С потерями
Размер потока : 231 Мбайт (2%)
Заголовок : DUB
Язык : Russian
ServiceKind/String : Complete Main
Default : Да
Forced : Нет
Аудио #2
Идентификатор : 3
Формат : DTS
Формат/Информация : Digital Theater Systems
Профиль формата : MA / Core
Режим : 16
Параметр Endianness формата : Big
Идентификатор кодека : A_DTS
Продолжительность : 1 ч. 24 м.
Вид битрейта : Переменный / Постоянный
Битрейт : 1920 Кбит/сек / 1509 Кбит/сек
Каналы : 6 каналов
Расположение каналов : Front: L C R, Side: L R, LFE
Частота : 48,0 КГц
Частота кадров : 93,750 кадра/сек (512 SPF)
Битовая глубина : 16 бит
Метод сжатия : Без потерь / Lossy
Размер потока : 1,12 Гбайт (8%)
Заголовок : Original
Язык : English
Default : Нет
Forced : Нет
Текст #1
Идентификатор : 4
Формат : UTF-8
Идентификатор кодека : S_TEXT/UTF8
Идентификатор кодека/Информация : UTF-8 Plain Text
Продолжительность : 1 ч. 17 м.
Битрейт : 98 бит/сек
ElementCount : 948
Размер потока : 55,8 Кбайт (0%)
Заголовок : Full
Язык : Russian
Default : Нет
Forced : Нет
Текст #2
Идентификатор : 5
Формат : UTF-8
Идентификатор кодека : S_TEXT/UTF8
Идентификатор кодека/Информация : UTF-8 Plain Text
Продолжительность : 1 ч. 17 м.
Битрейт : 54 бит/сек
ElementCount : 920
Размер потока : 31,0 Кбайт (0%)
Заголовок : Full
Язык : English
Default : Нет
Forced : Нет
Текст #3
Идентификатор : 6
Формат : UTF-8
Идентификатор кодека : S_TEXT/UTF8
Идентификатор кодека/Информация : UTF-8 Plain Text
Продолжительность : 1 ч. 24 м.
Битрейт : 52 бит/сек
ElementCount : 979
Размер потока : 32,4 Кбайт (0%)
Заголовок : SDH
Язык : English
Default : Нет
Forced : Нет
Меню
00:00:00.000 : it:Глава 01
00:07:15.440 : it:Глава 02
00:14:18.960 : it:Глава 03
00:21:00.960 : it:Глава 04
00:29:04.000 : it:Глава 05
00:34:49.440 : it:Глава 06
00:41:11.840 : it:Глава 07
00:48:55.840 : it:Глава 08
00:55:56.160 : it:Глава 09
01:02:36.960 : it:Глава 10
01:10:49.120 : it:Глава 11
01:18:29.760 : it:Глава 12

Скриншоты

-
Профиль [ЛС]
Показать сообщения:    

Текущее время: 28-Окт 20:35

Часовой пояс: UTC ± 0



Вы не можете начинать темы
Вы не можете отвечать на сообщения
Вы не можете редактировать свои сообщения
Вы не можете удалять свои сообщения
Вы не можете голосовать в опросах
Вы не можете прикреплять файлы к сообщениям
Вы не можете скачивать файлы