Статистика раздачи
Размер:  1,46 GB   |    Зарегистрирован:  5 месяцев 28 дней   |    Скачан:  0 раз
Сидов:  12  [  0 KB/s  ]  
   
 

солнышко ®

Пол:
Не указан
Стаж:
7 месяцев 4 дня
Сообщений:
565

Чрево кита / The Belly of the Whale
Страна: Ирландия
Жанр: драма, криминал
Год выпуска: 2018
Продолжительность: 01:26:19-Перевод: Любительский (многоголосый закадровый) | HDRezka Studio
Субтитры: нет
Оригинальная аудиодорожка: нет-Режиссер: Морган Буш / Morgan Bushe-В ролях: Арт Паркинсон, Майкл Смайли, Льюис МакДугалл, Питер Кунан, Пэт Шорт, Лорен Кинселла, Марк Кельвин Райан, Ронан Грэм, Дэйл Лидон Болджер, Сиан Галлахер-Описание: Джои — неблагополучный подросток, который возвращается в родной провинциальный городок, чтобы восстановить трейлер-парк, принадлежащий его семье. Но из-за темного прошлого парень с первых же дней сталкивается с презрительным отношением местных жителей, считающих, что именно он убил своего отца. Судьба неожиданно сводит его с Рональдом — уже немолодым мужчиной, считающим себя полным неудачником, последним "достижением" которого стала проваленная сделка по продаже детских игрушек. Так получается, что Джои случайно сжигает фургон Рональда, остановившегося на ночевку в его парке. Видя его страдания, связанные с потерей последней возможности помочь тяжело больной жене, парень решает помочь своему первому и единственному постояльцу раздобыть необходимую сумму.- -Качество видео: WEB-DLRip
Формат видео: AVI
Видео: 720x304 (2.37:1), 24.000 fps, XviD build 73 ~2216 kbps avg, 0.42 bit/pixel
Аудио: 48 kHz, AC3 Dolby Digital, 2/0 (L,R) ch, ~192 kbps-[box]Сэмпл[/box]-

MediaInfo

Код:Формат : AVI
Формат/Информация : Audio Video Interleave
Размер файла : 1,46 Гбайт
Продолжительность : 1 ч. 26 м.
Общий поток : 2418 Кбит/сек
Программа кодирования : VirtualDubMod 1.5.10.3 | www.virtualdub-fr.org || (build 2550/release)
Библиотека кодирования : VirtualDubMod build 2550/release
Видео
Идентификатор : 0
Формат : MPEG-4 Visual
Профиль формата : Advanced Simple@L5
Настройки формата : BVOP1 / Custom Matrix
Параметр BVOP формата : 1
Параметр QPel формата : Нет
Параметр GMC формата : Без точки перехода
Параметр матрицы формата : Выборочная
Идентификатор кодека : XVID
Идентификатор кодека/Подсказка : XviD
Продолжительность : 1 ч. 26 м.
Битрейт : 2217 Кбит/сек
Ширина : 720 пикселей
Высота : 304 пикселя
Соотношение сторон : 2,35:1
Частота кадров : 24,000 кадра/сек
Цветовое пространство : YUV
Субдискретизация насыщенности : 4:2:0
Битовая глубина : 8 бит
Тип развёртки : Прогрессивная
Метод сжатия : С потерями
Бит/(Пиксели*Кадры) : 0.422
Размер потока : 1,34 Гбайт (92%)
Библиотека кодирования : XviD 73
Аудио
Идентификатор : 1
Формат : AC-3
Формат/Информация : Audio Coding 3
Коммерческое название : Dolby Digital
Идентификатор кодека : 2000
Продолжительность : 1 ч. 26 м.
Вид битрейта : Постоянный
Битрейт : 192 Кбит/сек
Каналы : 2 канала
Channel layout : L R
Частота : 48,0 КГц
Частота кадров : 31,250 кадров/сек (1536 SPF)
Битовая глубина : 16 бит
Метод сжатия : С потерями
Размер потока : 119 Мбайт (8%)
Выравнивание : Разделение по промежуткам
Продолжительность промежутка : 42 мс. (1,00 видеокадр)
Время предзагрузки промежутка : 500 мс.
ServiceKind/String : Complete Main

Скриншоты


[cybertorrent.net].t2144.torrent 
Торрент: Зарегистрирован [ 2019-04-18 17:27 ] · FAAC32DF05E2EB59A8579A54030FD3ED399DD57D

Скачать .torrent

Скачать

15 KB

Статус: проверено
Скачан: 0 раз
Размер: 1,46 GB
terms.php
Профиль ЛС
Показать сообщения:    

Текущее время: 17-Окт 06:16

Часовой пояс: UTC ± 0



Вы не можете начинать темы
Вы не можете отвечать на сообщения
Вы не можете редактировать свои сообщения
Вы не можете удалять свои сообщения
Вы не можете голосовать в опросах
Вы не можете прикреплять файлы к сообщениям
Вы можете скачивать файлы