Статистика раздачи
Размер:  1,24 GB   |    Зарегистрирован:  6 месяцев 25 дней   |    Скачан:  0 раз

Полного источника не было: Никогда

 
     
 
 

Гость ®

Пол:
Не указан

Последняя встреча
Жанр: социальная драма
Год выпуска: 1974
Продолжительность: 01:25:51
Режиссёр: Борис Бунеев
В ролях: Геннадий Сайфулин, Алеша Молостов, Владимир Меньшов, Володя Губин, Серёжа Щёголев, Светлана Орлова, Алексей Граббе, Любовь Мышева, Георгий Юматов, Син Сайто, Вадим Захарченко, Артур Нищенкин, Юнус Юсупов
Описание: писатель Павел Снигирев приехал в село, где прошло его детство, и встретил старого друга Клима Авилова, всеми уважаемого колхозного бригадира.
Доп. информация: Запись потока *.ts со спутника EUTELSAT 36A/B, 36° в.д., удаление рекламы программой VideoReDo.
Качество видео: DVB
Формат видео: MKV
Видео: MPEG2 Video, 704(768)x576 (4:3), 25,000 кадров/сек, 1838 Кбит/сек
Аудио: MPEG Audio, 48,0 КГц, 192 Кбит/сек, 2 канала

MediaInfo

Общее
Уникальный идентификатор : 62591239732333876021706005430364275112 (0x2F16A2608BE556EB9964E8EEDA1001A8)
Полное имя : D:\Torrent\ПОСЛЕДНЯЯ ВСТРЕЧА (Звезда).mkv
Формат : Matroska
Версия формата : Version 2
Размер файла : 1,24 Гбайт
Продолжительность : 1 ч. 25 м.
Режим общего битрейта : Переменный
Общий поток : 2072 Кбит/сек
Программа кодирования : Lavf52.64.2
Библиотека кодирования : Lavf52.64.2
Видео
Идентификатор : 1
Формат : MPEG Video
Версия формата : Version 2
Профиль формата : Main@Main
Параметр BVOP формата : Да
Параметр матрицы формата : Выборочная
Параметр GOP формата : M=3, N=24
Идентификатор кодека : V_MPEG2
Идентификатор кодека/Информация : MPEG 1 or 2 Video
Продолжительность : 1 ч. 25 м.
Вид битрейта : Переменный
Битрейт : 1838 Кбит/сек
Максимальный битрейт : 15,0 Мбит/сек
Ширина : 704 пикселя
Высота : 576 пикселей
Соотношение сторон : 4:3
Соотношение сторон в оригинале : 4:3
Режим частоты кадров : Постоянный
Частота кадров : 25,000 кадров/сек
Стандарт вещания : PAL
Цветовое пространство : YUV
Субдискретизация насыщенности : 4:2:0
Битовая глубина : 8 бит
Метод сжатия : С потерями
Бит/(Пиксели*Кадры) : 0.181
Размер потока : 1,10 Гбайт (89%)
Default : Да
Forced : Нет
Аудио
Идентификатор : 2
Формат : MPEG Audio
Версия формата : Version 1
Профиль формата : Layer 2
Идентификатор кодека : A_MPEG/L2
Идентификатор кодека/Подсказка : MP2
Продолжительность : 1 ч. 25 м.
Вид битрейта : Постоянный
Битрейт : 192 Кбит/сек
Каналы : 2 канала
Частота : 48,0 КГц
Метод сжатия : С потерями
Размер потока : 118 Мбайт (9%)
Язык : English
Default : Да
Forced : Нет
[cybertorrent.net].t2136.torrent 
Торрент: Зарегистрирован [ 2019-04-18 17:27 ] · A0D719256E3888EDCF7DBF12C5AAAD94F3CC4747

Скачать .torrent

Скачать

13 KB

Статус: проверено
Скачан: 0 раз
Размер: 1,24 GB
terms.php
Показать сообщения:    

Текущее время: 13-Ноя 17:52

Часовой пояс: UTC ± 0



Вы не можете начинать темы
Вы не можете отвечать на сообщения
Вы не можете редактировать свои сообщения
Вы не можете удалять свои сообщения
Вы не можете голосовать в опросах
Вы не можете прикреплять файлы к сообщениям
Вы можете скачивать файлы