Статистика раздачи
Размер:  6,62 GB   |    Зарегистрирован:  6 месяцев 29 дней   |    Скачан:  0 раз

Полного источника не было: Никогда

 
     
 
 

Гость ®

Пол:
Не указан

Розуэлл, Нью-Мексико / Roswell, New Mexico
<Установи контакт> / «Make Contact»
- Год выпуска: 2019
Страна: США
Жанр: фантастика, драма, мелодрама
Продолжительность: 00:42:26-Перевод: Профессиональный (многоголосый закадровый) - Lostfilm-Режиссёр: Тим Эндрю, Пол Уэсли, Джули Плек, Шири Эпплби-В ролях: Джанин Мэйсон, Хезер Сайрус Хемменс, Уилльям Грили, Роза Арредондо, Стефани Хилл, Тайлер Блэкберн, Нэйтан Парсонс, Дж. Нэйтан Симмонс-Описание: "Розуэлл, Нью-Мексико" - это ребут сериала "Город пришельцев", который выходил на канале The WB в 1999-2002 годах и был, в свою очередь, основан на серии романов Мелинды Метц. Автор идеи перезагрузки, Карина Адли Маккензи ("Флэш", "Первородные"), в работе над сценарием опиралась больше на печатный оригинал, а возглавить съемки пилотной серии она пригласила Джули Плек, работавшую над многими сериалами канала The CW. Как лучшие и самые популярные проекты данной телесети, "Розуэлл, Нью-Мексико" делает ставку на любовную историю между человеком и представителем другого вида, в данном случае - инопланетянином. Их отношения будут окутаны множеством тайн и загадок, компьютерные спецэффекты покажут зрителям способности пришельцев во всей красе, а в актерском составе собрались исключительно приятные молодые люди и девушки. В общем, The CW остается верным себе и приглашает своих поклонников окунуться в мир, где любовь всей твоей жизни может оказаться гостем с другом планеты, и этот факт способен повлечь за собой не только приятные сюрпризы, но и серьезные проблемы.
Сюжет: Лиз Ортехо (Джанин Мэйсон) покинула родной Розуэлл после окончания школы и смерти своей сестры, которая погибла при странных обстоятельствах. Будучи дочерью эмигрантов, девушка смогла получить престижную профессию биомедика, но спустя годы ей пришлось вернуться в сонный ковбойский городок, причем не в самом лучшем расположении духа. Впрочем, долго горевать у нее не получилось: на горизонте вдруг объявился бывший бойфренд Кайл (Майкл Тревино), который стал хирургом, и красавчик Макс (Нэйтан Парсонс), в которого она когда-то была влюблена. Макс теперь - уважаемый член сообщества и верный своему призванию полицейский. Между Лиз и Максом стремительно вспыхивает бурный роман, но вскоре девушка узнает, что ее возлюбленный - настоящий инопланетянин, долгое время скрывавший правду о себе, как и его сестра. Тем временем неподалеку от Розуэлла зреет правительственный заговор, угрожающий всем пришельцам. Политика нетерпимости по отношению к "эмигрантам" с другой планеты может разрушить не только отношения Лиз и Макса, но и их жизни. Смогут ли они сохранить свою любовь в мире, где никто их не понимает, особенно когда Лиз узнает шокирующую правду о смерти своей сестры?..-Сэмпл: http://multi-up.com/1221679-Качество: WEB-DLRip
Формат: AVI
Видео: 720x400 (16:9), 23.976 fps, XviD build 73, 1795 Kbps, 0.26 bit/pixel
Аудио: 48 kHz, AC3 Dolby Digital, 2 ch, 192 Kbps
Субтитры: Отсутствуют-Реклама: Отсутствует-Предыдущие и альтернативные раздачи

Список серий

01. Пилот / Pilot
02. Вот вам и приятные воспоминания / So Much For the Afterglow
03. Надрывая мое сердце / Tearin' Up My Heart
04. Куда подевались все ковбои / Where Have All The Cowboys Gone?
05. Молчи / Don't Speak
06. Повеяло юностью / Smells Like Teen Spirit
07. Я видел знак / I Saw the Sign
08. Чуть дыша / Barely Breathing
09. Песни о Техасе / Songs About Texas
10. Я не хочу ничего упустить / I Don't Want to Miss a Thing
11. Шампанское с сюрпризом / Champagne Supernova

MediaInfo

General
Complete name : Downloads\Roswell.New.Mexic\Roswell.New.Mexico.S01E01.Pilot.WEB-DLRip.avi
Format : AVI
Format/Info : Audio Video Interleave
File size : 606 MiB
Duration : 42mn 26s
Overall bit rate : 1 997 Kbps
Writing application : VirtualDubMod 1.5.10.3 | www.virtualdub-fr.org || (build 2550/release)
Writing library : VirtualDubMod build 2550/release
Video #0
ID : 0
Format : MPEG-4 Visual
Format profile : Advanced Simple@L5
Format settings, BVOP : 1
Format settings, QPel : No
Format settings, GMC : No warppoints
Format settings, Matrix : Custom
Codec ID : XVID
Codec ID/Hint : XviD
Duration : 42mn 26s
Bit rate : 1 795 Kbps
Width : 720 pixels
Height : 400 pixels
Display aspect ratio : 16:9
Frame rate : 23.976 fps
Color space : YUV
Chroma subsampling : 4:2:0
Bit depth : 8 bits
Scan type : Progressive
Compression mode : Lossy
Bits/(Pixel*Frame) : 0.260
Stream size : 545 MiB (90%)
Writing library : XviD 73
Audio #1
ID : 1
Format : AC-3
Format/Info : Audio Coding 3
Mode extension : CM (complete main)
Format settings, Endianness : Big
Codec ID : 2000
Duration : 42mn 26s
Bit rate mode : Constant
Bit rate : 192 Kbps
Channel(s) : 2 channels
Channel positions : Front: L R
Sampling rate : 48.0 KHz
Bit depth : 16 bits
Compression mode : Lossy
Stream size : 58.3 MiB (10%)
Alignment : Split accross interleaves
Interleave, duration : 42 ms (1.00 video frame)
Interleave, preload duration : 500 ms

Скриншоты

Внимание! Раздача ведётся путём добавления новых серий&#58;

(1) остановить скачивание,
(2) удалить старый торрент у себя из клиента (старые серии удалять не надо),
(3) скачать новый торрент и запустить его у себя в клиенте вместо старого, при этом указать клиенту путь в старую папку куда и должно происходить скачивание новых серий.
Ваш клиент при этом должен произвести хеширование (проверку) старой папки (если не производит сам - помогите ему сделать это), и будет докачивать только те серии которых у вас ещё нет. Старые серии при этом не удаляются, а продолжают раздаваться!
Eсли вы уже удалили старые серии, то предотвратить повторную закачку старых серий можно, отжав галочку в соответсвующих местах при запуске нового торрента. По возможности, желательно не удалять старые серии как можно дольше чтобы релизёр не столько продолжал раздавать старые серии, а смог сконцентрироваться на новых
.
[cybertorrent.net].t2134.torrent 
Торрент: Зарегистрирован [ 2019-04-18 17:27 ] · B90B27F5E408E202B9DEF6E2F2B9C9A22FFA95A8

Скачать .torrent

Скачать

35 KB

Статус: проверено
Скачан: 0 раз
Размер: 6,62 GB
terms.php
Показать сообщения:    

Текущее время: 17-Ноя 18:34

Часовой пояс: UTC ± 0



Вы не можете начинать темы
Вы не можете отвечать на сообщения
Вы не можете редактировать свои сообщения
Вы не можете удалять свои сообщения
Вы не можете голосовать в опросах
Вы не можете прикреплять файлы к сообщениям
Вы можете скачивать файлы