Статистика раздачи
Размер:  1,48 GB   |    Зарегистрирован:  7 месяцев 25 дней   |    Скачан:  0 раз

Полного источника не было: Никогда

 
     
 
 

Гость ®

Пол:
Не указан

Хоттабыч / }{0ТТ@БЬ)Ч
-WEBRip-1080p | WEBRip-AVC-Жанр: комедия, приключения
Год выпуска: 2006
Продолжительность: 01:31:34
Режиссёр: Пётр Точилин
В ролях: Владимир Толоконников, Марюс Ямпольскис, Лива Круминя, Марк Гейхман, Юлия Паранова, Мила Липнер, Григорий Скряпкин, Иван Губанов, Александр Овчинников, Юрий Думчев
Описание: Гена — программист по призванию и хакер по жизни. Он хороший парень. Но у него реальные проблемы. Его бросила любимая девушка, его «пасут» бандиты и выслеживают спецслужбы. Спасти его может только чудо, и оно, конечно же, случается. В жизни Гены появляется Хоттабыч, джин, который отмотал несколько тысяч лет заключения в одиночном кувшине.
И теперь готов исполнить три любых желания своего освободителя. Но у самого Хоттабыча тоже проблемы. За ним охотится его давний враг — Шайтаныч. Спасаясь от своих врагов, Гена и Хоттабыч летают на потраченном говорящей молью ковре-самолете над Красной площадью, путешествуют по сетям Мировой Паутины и практикуют магию: превращают людей в вещи, а вещи в людей...
Доп. информация: Исходник с онлайн-кинотеатра Кинопоиск. Звук с лицензии
Сэмпл: http://multi-up.com/1229757
Качество видео: WEBRip-AVC Исходник
Формат видео: MKV
Видео: MPEG-4 AVC/H.264 / 1860 kbps / 1024x574 / 25.000 fps
Аудио: AC3 / 6 ch / 448 kbps / 48 kHz
#Сохранены оригинальные чаптеры как на WEB-DL

MediaInfo

General
Unique ID : 225941519249449257354948806647699847809 (0xA9FAC0F66F2121628021DD6F3C95BA81)
Complete name : I:\Rutracker\}{0ТТ@БЬ)Ч (2006) WEBRip-AVC.mkv
Format : Matroska
Format version : Version 2
File size : 1.48 GiB
Duration : 1 h 31 min
Overall bit rate : 2 309 kb/s
Movie name : Хоттабыч / }{0ТТ@БЬ)Ч (2006)
Encoded date : UTC 2019-04-18 06:21:58
Writing application : mkvmerge v5.5.0 ('Healer') built on Apr 24 2012 23:47:03
Writing library : libebml v1.2.3 + libmatroska v1.3.0
Video
ID : 1
Format : AVC
Format/Info : Advanced Video Codec
Format profile : High@L3.1
Format settings : CABAC / 8 Ref Frames
Format settings, CABAC : Yes
Format settings, ReFrames : 8 frames
Codec ID : V_MPEG4/ISO/AVC
Duration : 1 h 31 min
Bit rate : 1 860 kb/s
Width : 1 024 pixels
Height : 574 pixels
Display aspect ratio : 16:9
Frame rate mode : Constant
Frame rate : 25.000 FPS
Color space : YUV
Chroma subsampling : 4:2:0
Bit depth : 8 bits
Scan type : Progressive
Bits/(Pixel*Frame) : 0.127
Stream size : 1.16 GiB (79%)
Title : WEBRip (1080p) / MPEG-4 AVC/H.264 / 1860 kbps / 1025x574 / 25.000 fps
Writing library : x264 core 146 r2538 121396c
Encoding settings : cabac=1 / ref=8 / deblock=1:0:0 / analyse=0x3:0x113 / me=umh / subme=10 / psy=1 / psy_rd=1.00:0.00 / mixed_ref=1 / me_range=32 / chroma_me=1 / trellis=2 / 8x8dct=1 / cqm=0 / deadzone=21,11 / fast_pskip=0 / chroma_qp_offset=-2 / threads=6 / lookahead_threads=1 / sliced_threads=0 / nr=0 / decimate=1 / interlaced=0 / bluray_compat=0 / constrained_intra=0 / bframes=9 / b_pyramid=2 / b_adapt=2 / b_bias=0 / direct=3 / weightb=1 / open_gop=0 / weightp=2 / keyint=250 / keyint_min=25 / scenecut=40 / intra_refresh=0 / rc_lookahead=50 / rc=2pass / mbtree=1 / bitrate=1860 / ratetol=1.0 / qcomp=0.60 / qpmin=0 / qpmax=69 / qpstep=4 / cplxblur=20.0 / qblur=0.5 / vbv_maxrate=14000 / vbv_bufsize=14000 / nal_hrd=none / filler=0 / ip_ratio=1.40 / aq=1:1.00
Language : Russian
Default : Yes
Forced : Yes
Audio
ID : 2
Format : AC-3
Format/Info : Audio Coding 3
Commercial name : Dolby Digital
Codec ID : A_AC3
Duration : 1 h 31 min
Bit rate mode : Constant
Bit rate : 448 kb/s
Channel(s) : 6 channels
Channel layout : L R C LFE Ls Rs
Sampling rate : 48.0 kHz
Frame rate : 31.250 FPS (1536 SPF)
Bit depth : 16 bits
Compression mode : Lossy
Stream size : 293 MiB (19%)
Title : Original DVD (Rus) / AC3 / 6 ch / 448 kbps / 48 kHz
Language : Russian
Service kind : Complete Main
Default : Yes
Forced : Yes
Menu
00:00:00.000 : en:Глава 1
00:06:17.000 : en:Глава 2
00:10:47.000 : en:Глава 3
00:15:27.000 : en:Глава 4
00:22:14.000 : en:Глава 5
00:27:25.000 : en:Глава 6
00:33:29.000 : en:Глава 7
00:38:42.000 : en:Глава 8
00:44:21.000 : en:Глава 9
00:49:45.000 : en:Глава 10
00:55:58.000 : en:Глава 11
01:01:16.000 : en:Глава 12
01:05:53.000 : en:Глава 13
01:12:01.000 : en:Глава 14
01:17:03.000 : en:Глава 15
01:21:28.000 : en:Глава 16
01:25:42.000 : en:Глава 17

Скриншот c названием фильма

Скриншоты

-

Обновление 18 апреля 2019

Новый рип с другого исходника
Старый рип:

Новый рип:
[cybertorrent.net].t2132.torrent 
Торрент: Зарегистрирован [ 2019-04-18 17:27 ] · 29C6F839E812DFBE21DBD96ABA3EDD058543C713

Скачать .torrent

Скачать

15 KB

Статус: проверено
Скачан: 0 раз
Размер: 1,48 GB
terms.php
Показать сообщения:    

Текущее время: 14-Дек 01:34

Часовой пояс: UTC ± 0



Вы не можете начинать темы
Вы не можете отвечать на сообщения
Вы не можете редактировать свои сообщения
Вы не можете удалять свои сообщения
Вы не можете голосовать в опросах
Вы не можете прикреплять файлы к сообщениям
Вы можете скачивать файлы