Статистика раздачи
Размер:  2,72 GB   |    Зарегистрирован:  7 месяцев 21 день   |    Скачан:  1 раз

Полного источника не было: 7 месяцев 4 дня

 
     
 
 

serzh ®

Пол:
Не указан
Стаж:
8 месяцев 28 дней
Сообщений:
384

Чудеса науки / Ох уж эта наука! / Weird Science
Страна: США
Жанр: комедия, фантастика
Год выпуска: 1985
Продолжительность: 01:33:30
Перевод: Профессиональный (дублированный) - «Шестой канал» по заказу СТС
Перевод: Авторский (одноголосый закадровый) - Андрей Гаврилов
Перевод: Профессиональный (многоголосый закадровый) - R5 Universal
Перевод: Профессиональный (многоголосый закадровый) - НТВ+
Перевод: Авторский (одноголосый закадровый) - диктор CDV
Субтитры: нет
Оригинальная аудиодорожка: английский
Режиссер: Джон Хьюз / John Hughes
В ролях: Энтони Майкл Холл, Илан Митчелл-Смит, Келли ЛеБрок, Билл Пэкстон, Сюзанн Снайдер, Джуди Аронсон, Роберт Дауни мл., Роберт Раслер, Вернон Уэллс, Бритт Лич, Барбара Лэнг
Описание: После просмотра фильма "Франкенштейн" два друга-неудачника Гари и Уайатт вдохновляются идеей создания идеальной девушки, которая бы лишила их девственности, став проводницей в мир чувственных наслаждений. Ребята набивают компьютер обложками от мужских журналов и, поместив туда же фотографию Эйнштейна, запускают программу. Спустя несколько минут в комнату входит созданная ими красавица Лиза. С ее появлением жизнь Гари и Уайатта меняется, но не совсем так, как планировали изобретатели...
Качество видео: BDRip [Oh_ug_eta_nauka_BDRemux_BT-Club.mkv]
Видео: 720x384 (1.88:1), 23.976 fps, XviD MPEG-4 ~2237 kbps avg, 0.34 bit/pixel
Аудио: 48 kHz, AC3 Dolby Digital, 2/0 (L,R) ch, ~192 kbps - дубляж
Аудио: 48 kHz, AC3 Dolby Digital, 3/2 (L,C,R,l,r) + LFE ch, ~448 kbps - R5
Аудио: 48 kHz, AC3 Dolby Digital, 3/2 (L,C,R,l,r) + LFE ch, ~448 kbps - Оригинал
отдельно:
Аудио 4: 48 kHz, AC3 Dolby Digital, 3/2 (L,C,R,l,r) + LFE ch, ~448 kbps - Гаврилов
Аудио: 48 kHz, AC3 Dolby Digital, 2/0 (L,R) ch, ~192 kbps - НТВ+
Аудио: 48 kHz, AC3 Dolby Digital, 2/0 (L,R) ch, ~192 kbps - диктор CDV

Media Info

General
Complete name : H:\Weird.Science.1985.bdrip_[2.18]_[teko]\Weird.Science.1985.bdrip_[2.18].avi
Format : AVI
Format/Info : Audio Video Interleave
Format profile : OpenDML
File size : 2.18 GiB
Duration : 1h 33mn
Overall bit rate : 3 332 Kbps
Writing application : VirtualDubMod 1.5.10.3 | www.virtualdub-fr.org || (build 2550/release)
Writing library : VirtualDubMod build 2550/release
Video
ID : 0
Format : MPEG-4 Visual
Format profile : Advanced Simple@L5
Format settings, BVOP : 2
Format settings, QPel : No
Format settings, GMC : No warppoints
Format settings, Matrix : Custom
Codec ID : XVID
Codec ID/Hint : XviD
Duration : 1h 33mn
Bit rate : 2 220 Kbps
Width : 720 pixels
Height : 384 pixels
Display aspect ratio : 1.85:1
Frame rate : 23.976 (23976/1000) fps
Color space : YUV
Chroma subsampling : 4:2:0
Bit depth : 8 bits
Scan type : Progressive
Compression mode : Lossy
Bits/(Pixel*Frame) : 0.335
Stream size : 1.45 GiB (67%)
Writing library : XviD 73
Audio #1
ID : 1
Format : AC-3
Format/Info : Audio Coding 3
Mode extension : CM (complete main)
Format settings, Endianness : Big
Codec ID : 2000
Duration : 1h 33mn
Bit rate mode : Constant
Bit rate : 192 Kbps
Channel(s) : 2 channels
Channel positions : Front: L R
Sampling rate : 48.0 KHz
Frame rate : 31.250 fps (1536 spf)
Compression mode : Lossy
Stream size : 128 MiB (6%)
Alignment : Split accross interleaves
Interleave, duration : 42 ms (1.00 video frame)
Interleave, preload duratio : 500 ms
Audio #2
ID : 2
Format : AC-3
Format/Info : Audio Coding 3
Mode extension : CM (complete main)
Format settings, Endianness : Big
Codec ID : 2000
Duration : 1h 33mn
Bit rate mode : Constant
Bit rate : 448 Kbps
Channel(s) : 6 channels
Channel positions : Front: L C R, Side: L R, LFE
Sampling rate : 48.0 KHz
Frame rate : 31.250 fps (1536 spf)
Compression mode : Lossy
Stream size : 300 MiB (13%)
Alignment : Split accross interleaves
Interleave, duration : 42 ms (1.00 video frame)
Interleave, preload duratio : 500 ms
Audio #3
ID : 3
Format : AC-3
Format/Info : Audio Coding 3
Mode extension : CM (complete main)
Format settings, Endianness : Big
Codec ID : 2000
Duration : 1h 33mn
Bit rate mode : Constant
Bit rate : 448 Kbps
Channel(s) : 6 channels
Channel positions : Front: L C R, Side: L R, LFE
Sampling rate : 48.0 KHz
Frame rate : 31.250 fps (1536 spf)
Compression mode : Lossy
Stream size : 300 MiB (13%)
Alignment : Split accross interleaves
Interleave, duration : 42 ms (1.00 video frame)
Interleave, preload duratio : 500 ms
Релиз группы:
--
[cybertorrent.net].t2130.torrent 
Торрент: Зарегистрирован [ 2019-04-18 17:27 ] · 1101BB9559F247282BF4620FE020916F9C288905

Скачать .torrent

Скачать

14 KB

Статус: проверено
Скачан: 1 раз
Размер: 2,72 GB
terms.php
Профиль [ЛС]
Показать сообщения:    

Текущее время: 10-Дек 09:13

Часовой пояс: UTC ± 0



Вы не можете начинать темы
Вы не можете отвечать на сообщения
Вы не можете редактировать свои сообщения
Вы не можете удалять свои сообщения
Вы не можете голосовать в опросах
Вы не можете прикреплять файлы к сообщениям
Вы можете скачивать файлы